Featured TV Shows


Z Nation S02E11

Posted By: Tavaz
1080p (FullHD) / BDRip IMDb
Z Nation S02E11

Z Nation S02E11
BDRip | MKV | 1920x1080 | English | H264 @ 9774 kbps | DTS @ 1509 kbps | 41 min 34 s | 3.28 GiB
Genre: Drama

Three years after the zombie virus has gutted the country, a team of everyday heroes must transport the only known survivor of the plague from New York to California, where the last functioning viral lab waits for his blood.

f0a2a400aaf34ac790979b1dbc63f212.mkv (3.3 GB)



General
Unique ID : 204041875748304262736332045040035135820 (0x9981092CE48F1506BABE575F4BF9814C)
Complete name : ./f0a2a400aaf34ac790979b1dbc63f212.mkv
Format : Matroska
Format version : Version 4 / Version 2
File size : 3.28 GiB
Duration : 41 min 34 s
Overall bit rate : 11.3 Mb/s
Encoded date : UTC 2016-02-19 14:43:04
Writing application : mkvmerge v8.3.0 ('Over the Horizon') 64bit
Writing library : libebml v1.3.1 + libmatroska v1.4.2

Video
ID : 1
Format : AVC
Format/Info : Advanced Video Codec
Format profile : High@L4.1
Format settings : CABAC / 4 Ref Frames
Format settings, CABAC : Yes
Format settings, RefFrames : 4 frames
Codec ID : V_MPEG4/ISO/AVC
Duration : 41 min 34 s
Bit rate : 9 774 kb/s
Width : 1 920 pixels
Height : 1 080 pixels
Display aspect ratio : 16:9
Frame rate mode : Constant
Frame rate : 23.976 FPS
Color space : YUV
Chroma subsampling : 4:2:0
Bit depth : 8 bits
Scan type : Progressive
Bits/(Pixel*Frame) : 0.197
Stream size : 2.84 GiB (87%)
Writing library : x264 core 148 r2665 a01e339
Encoding settings : cabac=1 / ref=4 / deblock=1:0:0 / analyse=0x3:0x133 / me=umh / subme=7 / psy=1 / psy_rd=1.00:0.00 / mixed_ref=1 / me_range=16 / chroma_me=1 / trellis=1 / 8x8dct=1 / cqm=0 / deadzone=21,11 / fast_pskip=0 / chroma_qp_offset=-2 / threads=12 / lookahead_threads=2 / sliced_threads=0 / nr=0 / decimate=1 / interlaced=0 / bluray_compat=0 / constrained_intra=0 / bframes=3 / b_pyramid=2 / b_adapt=1 / b_bias=0 / direct=1 / weightb=1 / open_gop=0 / weightp=2 / keyint=250 / keyint_min=23 / scenecut=40 / intra_refresh=0 / rc_lookahead=40 / rc=2pass / mbtree=1 / bitrate=9774 / ratetol=1.0 / qcomp=0.60 / qpmin=0 / qpmax=69 / qpstep=4 / cplxblur=20.0 / qblur=0.5 / ip_ratio=1.40 / aq=1:1.00
Language : English
Default : Yes
Forced : No

Audio
ID : 2
Format : DTS
Format/Info : Digital Theater Systems
Mode : 16
Format settings, Endianness : Big
Codec ID : A_DTS
Duration : 41 min 34 s
Bit rate mode : Constant
Bit rate : 1 509 kb/s
Channel(s) : 6 channels
Channel positions : Front: L C R, Side: L R, LFE
Sampling rate : 48.0 kHz
Frame rate : 93.750 FPS (512 SPF)
Bit depth : 24 bits
Compression mode : Lossy
Stream size : 449 MiB (13%)
Language : English
Default : Yes
Forced : No

Menu
00:00:00.000 : en:00:00:00.000
00:15:17.959 : en:00:15:17.959
00:23:20.899 : en:00:23:20.899
00:31:19.961 : en:00:31:19.961
00:35:22.162 : en:00:35:22.162
00:39:24.028 : en:00:39:24.028
00:41:12.553 : en:00:41:12.553





Z Nation S02E11


Z Nation S02E11


Z Nation S02E11


Z Nation S02E11


Z Nation S02E11

All episodes