Featured TV Shows


Z Nation S04E02

Posted By: Tavaz
720p (HD) / WEB-DL IMDb
Z Nation S04E02

Z Nation S04E02
WEB-DL | MKV | 1280x720 | English | H264 @ 3584 kbps | E-AC-3 @ 640 kbps | 42 min 39 s | 1.26 GiB
Subtitles: English
Genre: Drama

Three years after the zombie virus has gutted the country, a team of everyday heroes must transport the only known survivor of the plague from New York to California, where the last functioning viral lab waits for his blood.

47efccff10894183b57dd24e77f9b143.mkv (1.3 GB)



General
Complete name : ./47efccff10894183b57dd24e77f9b143.mkv
Format : Matroska
Format version : Version 4 / Version 2
File size : 1.26 GiB
Duration : 42 min 39 s
Overall bit rate mode : Variable
Overall bit rate : 4 227 kb/s
Encoded date : UTC 2017-10-07 13:39:37
Writing application : mkvmerge v15.0.0 ('Duel with the Devil') 64-bit
Writing library : libebml v1.3.5 + libmatroska v1.4.5

Video
ID : 1
Format : AVC
Format/Info : Advanced Video Codec
Format profile : High@L3.1
Format settings : CABAC / 5 Ref Frames
Format settings, CABAC : Yes
Format settings, RefFrames : 5 frames
Codec ID : V_MPEG4/ISO/AVC
Duration : 42 min 39 s
Bit rate mode : Variable
Bit rate : 3 585 kb/s
Maximum bit rate : 4 500 kb/s
Width : 1 280 pixels
Height : 720 pixels
Display aspect ratio : 16:9
Frame rate mode : Constant
Frame rate : 23.976 (24000/1001) FPS
Color space : YUV
Chroma subsampling : 4:2:0
Bit depth : 8 bits
Scan type : Progressive
Bits/(Pixel*Frame) : 0.162
Stream size : 1.07 GiB (85%)
Default : Yes
Forced : No
Color range : Limited
Color primaries : BT.709
Transfer characteristics : BT.709
Matrix coefficients : BT.709

Audio
ID : 2
Format : E-AC-3
Format/Info : Enhanced Audio Coding 3
Format settings, Endianness : Big
Codec ID : A_EAC3
Duration : 42 min 39 s
Bit rate mode : Constant
Bit rate : 640 kb/s
Channel(s) : 6 channels
Channel positions : Front: L C R, Side: L R, LFE
Sampling rate : 48.0 kHz
Frame rate : 187.500 FPS (256 SPF)
Compression mode : Lossy
Stream size : 195 MiB (15%)
Language : English
Service kind : Complete Main
Default : Yes
Forced : No

Text
ID : 3
Format : UTF-8
Codec ID : S_TEXT/UTF8
Codec ID/Info : UTF-8 Plain Text
Duration : 41 min 18 s
Bit rate : 53 b/s
Count of elements : 663
Stream size : 16.1 KiB (0%)
Language : English
Default : No
Forced : No





Z Nation S04E02


Z Nation S04E02


Z Nation S04E02


Z Nation S04E02


Z Nation S04E02

All episodes