Featured TV Shows


Z Nation S04E07

Posted By: Tavaz
720p (HD) / WEB-DL IMDb
Z Nation S04E07

Z Nation S04E07
WEB-DL | MKV | 1280x720 | English | H264 @ 4382 kbps | E-AC-3 @ 640 kbps | 42 min 9 s | 1.48 GiB
Subtitles: English
Genre: Drama

Three years after the zombie virus has gutted the country, a team of everyday heroes must transport the only known survivor of the plague from New York to California, where the last functioning viral lab waits for his blood.

f4849ed24d2f4e90aa64b01a62049d61.mkv (1.5 GB)



General
Complete name : ./f4849ed24d2f4e90aa64b01a62049d61.mkv
Format : Matroska
Format version : Version 4 / Version 2
File size : 1.48 GiB
Duration : 42 min 9 s
Overall bit rate mode : Variable
Overall bit rate : 5 025 kb/s
Encoded date : UTC 2017-11-11 14:26:05
Writing application : mkvmerge v17.0.0 ('Be Ur Friend') 64-bit
Writing library : libebml v1.3.5 + libmatroska v1.4.8

Video
ID : 1
Format : AVC
Format/Info : Advanced Video Codec
Format profile : High@L3.1
Format settings : CABAC / 5 Ref Frames
Format settings, CABAC : Yes
Format settings, RefFrames : 5 frames
Codec ID : V_MPEG4/ISO/AVC
Duration : 42 min 9 s
Bit rate mode : Variable
Bit rate : 4 383 kb/s
Maximum bit rate : 4 500 kb/s
Width : 1 280 pixels
Height : 720 pixels
Display aspect ratio : 16:9
Frame rate mode : Constant
Frame rate : 23.976 (24000/1001) FPS
Color space : YUV
Chroma subsampling : 4:2:0
Bit depth : 8 bits
Scan type : Progressive
Bits/(Pixel*Frame) : 0.198
Stream size : 1.29 GiB (87%)
Default : Yes
Forced : No
Color range : Limited
Color primaries : BT.709
Transfer characteristics : BT.709
Matrix coefficients : BT.709

Audio
ID : 2
Format : E-AC-3
Format/Info : Enhanced Audio Coding 3
Format settings, Endianness : Big
Codec ID : A_EAC3
Duration : 42 min 9 s
Bit rate mode : Constant
Bit rate : 640 kb/s
Channel(s) : 6 channels
Channel positions : Front: L C R, Side: L R, LFE
Sampling rate : 48.0 kHz
Frame rate : 187.500 FPS (256 SPF)
Compression mode : Lossy
Stream size : 193 MiB (13%)
Language : English
Service kind : Complete Main
Default : Yes
Forced : No

Text
ID : 3
Format : UTF-8
Codec ID : S_TEXT/UTF8
Codec ID/Info : UTF-8 Plain Text
Duration : 41 min 43 s
Bit rate : 59 b/s
Count of elements : 715
Stream size : 18.3 KiB (0%)
Language : English
Default : No
Forced : No





Z Nation S04E07


Z Nation S04E07


Z Nation S04E07


Z Nation S04E07


Z Nation S04E07

All episodes