Featured TV Shows


Z Nation S04E13

Posted By: Tavaz
1080p (FullHD) / BDRip IMDb
Z Nation S04E13

Z Nation S04E13
WEB-DL | MKV | 1920x800 | German / English | H264 @ 8433 kbps | AC-3 @ 384 kbps | 39 min 28 s | 2.64 GiB
Genre: Drama

Im Mittelpunkt steht eine Gruppe Durchschnittsmenschen, die drei Jahre nach Ausbruch der Epidemie den letzten Überlebenden aus New York nach Kalifornien bringen sollen. Dort befindet sich nämlich das letzte noch funktionierende Labor. Die Antikörper im Blut des Nichtinfizierten sind zwar die letzte Hoffnung für den Fortbestand der Menschheit, aber er birgt auch ein dunkles, gefährliches Geheimnis.

tvp-znation-s04e13-1080p.mkv (2.6 GB)
tvp-znation-s04e13-1080p-sample.mkv (87.2 MB)



General
Unique ID : 334842053970272745947294590023734631864 (0xFBE83BDCD11C299028D901FF4D9F9DB8)
Complete name : ./tvp-znation-s04e13-1080p.mkv
Format : Matroska
Format version : Version 2
File size : 2.64 GiB
Duration : 39 min 28 s
Overall bit rate : 9 563 kb/s
Movie name : Z.Nation.S04E13.The.Black.Rainbow.GERMAN.DUBBED.DL.1080p.BluRay.x264-TVP
Encoded date : UTC 2018-06-04 23:44:30
Writing application : mkvmerge v5.6.0 ('Kenya Kane') built on May 28 2012 06:47:39
Writing library : libebml v1.2.2 + libmatroska v1.3.0

Video
ID : 1
Format : AVC
Format/Info : Advanced Video Codec
Format profile : High@L4.1
Format settings : CABAC / 5 Ref Frames
Format settings, CABAC : Yes
Format settings, RefFrames : 5 frames
Codec ID : V_MPEG4/ISO/AVC
Duration : 39 min 28 s
Bit rate : 8 433 kb/s
Width : 1 920 pixels
Height : 800 pixels
Display aspect ratio : 2.40:1
Frame rate mode : Constant
Frame rate : 25.000 FPS
Original frame rate : 23.976 (24000/1001) FPS
Color space : YUV
Chroma subsampling : 4:2:0
Bit depth : 8 bits
Scan type : Progressive
Bits/(Pixel*Frame) : 0.220
Stream size : 2.37 GiB (90%)
Title : tvp-znation-s04e13-1080p
Writing library : x264 core 155 r2901 7d0ff22
Encoding settings : cabac=1 / ref=5 / deblock=1:-3:-3 / analyse=0x3:0x113 / me=umh / subme=8 / psy=1 / psy_rd=1.00:0.00 / mixed_ref=1 / me_range=32 / chroma_me=1 / trellis=1 / 8x8dct=1 / cqm=0 / deadzone=21,11 / fast_pskip=1 / chroma_qp_offset=-2 / threads=6 / lookahead_threads=1 / sliced_threads=0 / nr=0 / decimate=1 / interlaced=0 / bluray_compat=0 / constrained_intra=0 / bframes=3 / b_pyramid=2 / b_adapt=2 / b_bias=0 / direct=3 / weightb=1 / open_gop=0 / weightp=2 / keyint=240 / keyint_min=24 / scenecut=40 / intra_refresh=0 / rc_lookahead=50 / rc=2pass / mbtree=1 / bitrate=8433 / ratetol=1.0 / qcomp=0.60 / qpmin=0 / qpmax=69 / qpstep=4 / cplxblur=20.0 / qblur=0.5 / ip_ratio=1.40 / aq=3:0.80
Language : German
Default : Yes
Forced : Yes

Audio #1
ID : 2
Format : AC-3
Format/Info : Audio Coding 3
Format settings, Endianness : Big
Codec ID : A_AC3
Duration : 39 min 28 s
Bit rate mode : Constant
Bit rate : 384 kb/s
Channel(s) : 6 channels
Channel positions : Front: L C R, Side: L R, LFE
Sampling rate : 48.0 kHz
Frame rate : 31.250 FPS (1536 SPF)
Bit depth : 16 bits
Compression mode : Lossy
Stream size : 108 MiB (4%)
Language : German
Service kind : Complete Main
Default : Yes
Forced : Yes

Audio #2
ID : 3
Format : AC-3
Format/Info : Audio Coding 3
Format settings, Endianness : Big
Codec ID : A_AC3
Duration : 39 min 28 s
Bit rate mode : Constant
Bit rate : 384 kb/s
Channel(s) : 6 channels
Channel positions : Front: L C R, Side: L R, LFE
Sampling rate : 48.0 kHz
Frame rate : 31.250 FPS (1536 SPF)
Bit depth : 16 bits
Compression mode : Lossy
Stream size : 108 MiB (4%)
Language : English
Service kind : Complete Main
Default : No
Forced : No





Z Nation S04E13


Z Nation S04E13


Z Nation S04E13


Z Nation S04E13


Z Nation S04E13

All episodes