Featured TV Shows


ZeroZeroZero S01E08

Posted By: Tavaz
720p (HD) / WEBRip IMDb
ZeroZeroZero S01E08

ZeroZeroZero S01E08
WEBRip | MKV | 1280x534 | English | H264 @ 1671 kbps | E-AC-3 @ 640 kbps | 1 h 6 min | 1.07 GiB
Genre: Crime, Drama


Based on the book of the same name by bestselling author Roberto Saviano, ZeroZeroZero is an unforgettable exploration of the inner workings of the global cocaine trade.

zerozerozero.s01e04.720p.webrip.x264-xlf.mkv (863.7 MB)
zerozerozero.s01e07.720p.webrip.x264-xlf.mkv (1023.1 MB)
zerozerozero.s01e05.720p.webrip.x264-xlf.mkv (868.8 MB)
zerozerozero.s01e06.720p.webrip.x264-xlf.mkv (1.1 GB)
zerozerozero.s01e03.720p.webrip.x264-xlf.mkv (829.9 MB)
zerozerozero.s01e01.720p.webrip.x264-xlf.mkv (1.1 GB)
zerozerozero.s01e02.720p.webrip.x264-xlf.mkv (1.1 GB)
zerozerozero.s01e08.720p.webrip.x264-xlf.mkv (931.7 MB)



General
Unique ID : 249598183507297751883849468565731796147 (0xBBC6DC8FBAB9905ECF2D0AFA6299E4B3)
Complete name : ./zerozerozero.s01e02.720p.webrip.x264-xlf.mkv
Format : Matroska
Format version : Version 4 / Version 2
File size : 1.07 GiB
Duration : 1 h 6 min
Overall bit rate : 2 313 kb/s
Encoded date : UTC 2020-03-06 01:31:16
Writing application : mkvmerge v38.0.0 ('The Silent Type') 64-bit
Writing library : libebml v1.3.9 + libmatroska v1.5.2

Video
ID : 1
Format : AVC
Format/Info : Advanced Video Codec
Format profile : High@L4.1
Format settings : CABAC / 5 Ref Frames
Format settings, CABAC : Yes
Format settings, RefFrames : 5 frames
Codec ID : V_MPEG4/ISO/AVC
Duration : 1 h 6 min
Bit rate : 1 671 kb/s
Width : 1 280 pixels
Height : 534 pixels
Display aspect ratio : 2.40:1
Frame rate mode : Constant
Frame rate : 25.000 FPS
Color space : YUV
Chroma subsampling : 4:2:0
Bit depth : 8 bits
Scan type : Progressive
Bits/(Pixel*Frame) : 0.098
Stream size : 792 MiB (72%)
Writing library : x264 core 158 r2988 7817004
Encoding settings : cabac=1 / ref=5 / deblock=1:-3:-3 / analyse=0x3:0x113 / me=umh / subme=8 / psy=1 / psy_rd=1.00:0.00 / mixed_ref=1 / me_range=16 / chroma_me=1 / trellis=2 / 8x8dct=1 / cqm=0 / deadzone=21,11 / fast_pskip=1 / chroma_qp_offset=-2 / threads=12 / lookahead_threads=2 / sliced_threads=0 / nr=0 / decimate=1 / interlaced=0 / bluray_compat=0 / constrained_intra=0 / bframes=3 / b_pyramid=2 / b_adapt=1 / b_bias=0 / direct=3 / weightb=1 / open_gop=0 / weightp=2 / keyint=250 / keyint_min=25 / scenecut=40 / intra_refresh=0 / rc_lookahead=50 / rc=crf / mbtree=1 / crf=18.0 / qcomp=0.60 / qpmin=0 / qpmax=69 / qpstep=4 / ip_ratio=1.40 / aq=1:1.00
Default : Yes
Forced : No

Audio
ID : 2
Format : E-AC-3
Format/Info : Enhanced Audio Coding 3
Format settings, Endianness : Big
Codec ID : A_EAC3
Duration : 1 h 6 min
Bit rate mode : Constant
Bit rate : 640 kb/s
Channel(s) : 6 channels
Channel positions : Front: L C R, Side: L R, LFE
Sampling rate : 48.0 kHz
Frame rate : 187.500 FPS (256 SPF)
Compression mode : Lossy
Stream size : 303 MiB (28%)
Language : English
Service kind : Complete Main
Default : Yes
Forced : No





ZeroZeroZero S01E08


ZeroZeroZero S01E08


ZeroZeroZero S01E08


ZeroZeroZero S01E08


ZeroZeroZero S01E08

All episodes