Featured TV Shows


Zoo S03E03

Posted By: Tavaz
1080p (FullHD) / WEBRip IMDb
Zoo S03E03

Zoo S03E03
WEB-DL | MKV | 1920x1080 | German / English | H264 @ 6857 kbps | AC-3 @ 384 kbps | 41 min 34 s | 2.26 GiB
Genre: Drama

Zoo ist eine US-amerikanische Fernsehserie, die auf dem gleichnamigen Roman von James Patterson und Michael Ledwidge basiert. Produziert wird die Serie seit 2015 von Midnight Radio, Tree Line Film, James Patterson Entertainment in Zusammenarbeit mit CBS Television Studios für den US-Sender CBS. Im Mittelpunkt der Serie steht ein Aufstand der Tiere, die sich gegen die Menschheit verschwören. Die Erstausstrahlung in den Vereinigten Staaten erfolgte am 30. Juni 2015 auf CBS.[1] Im August 2016 verlängerte CBS die Serie um eine dritte Staffel, die vom 29. Juni 2017 bis zum 21. September 2017 ausgestrahlt wurde

tvp-zoo-s03e03-1080p.mkv (2.3 GB)



General
Unique ID : 57943672150073435677242894394882381500 (0x2B978B9AA04D8DFD9D7D3E3E1B39D6BC)
Complete name : ./tvp-zoo-s03e03-1080p.mkv
Format : Matroska
Format version : Version 2
File size : 2.26 GiB
Duration : 41 min 34 s
Overall bit rate mode : Variable
Overall bit rate : 7 780 kb/s
Movie name : Zoo.S03E03.Gestaendnisse.GERMAN.DUBBED.DL.1080p.WebHD.x264-TVP
Encoded date : UTC 2018-01-11 17:33:42
Writing application : mkvmerge v5.6.0 ('Kenya Kane') built on May 28 2012 06:47:39
Writing library : libebml v1.2.2 + libmatroska v1.3.0

Video
ID : 1
Format : AVC
Format/Info : Advanced Video Codec
Format profile : High@L4
Format settings : CABAC / 4 Ref Frames
Format settings, CABAC : Yes
Format settings, RefFrames : 4 frames
Codec ID : V_MPEG4/ISO/AVC
Duration : 41 min 34 s
Bit rate mode : Variable
Bit rate : 6 857 kb/s
Maximum bit rate : 15.0 Mb/s
Width : 1 920 pixels
Height : 1 080 pixels
Display aspect ratio : 16:9
Frame rate mode : Constant
Frame rate : 25.000 FPS
Original frame rate : 23.976 (24000/1001) FPS
Color space : YUV
Chroma subsampling : 4:2:0
Bit depth : 8 bits
Scan type : Progressive
Bits/(Pixel*Frame) : 0.132
Stream size : 1.99 GiB (88%)
Title : tvp-zoo-s03e03-1080p
Language : German
Default : Yes
Forced : Yes
Color range : Limited
Color primaries : BT.709
Transfer characteristics : BT.709
Matrix coefficients : BT.709

Audio #1
ID : 2
Format : AC-3
Format/Info : Audio Coding 3
Format settings, Endianness : Big
Codec ID : A_AC3
Duration : 41 min 34 s
Bit rate mode : Constant
Bit rate : 384 kb/s
Channel(s) : 6 channels
Channel positions : Front: L C R, Side: L R, LFE
Sampling rate : 48.0 kHz
Frame rate : 31.250 FPS (1536 SPF)
Bit depth : 16 bits
Compression mode : Lossy
Stream size : 114 MiB (5%)
Language : German
Service kind : Complete Main
Default : Yes
Forced : Yes

Audio #2
ID : 3
Format : AC-3
Format/Info : Audio Coding 3
Format settings, Endianness : Big
Codec ID : A_AC3
Duration : 41 min 34 s
Bit rate mode : Constant
Bit rate : 384 kb/s
Channel(s) : 6 channels
Channel positions : Front: L C R, Side: L R, LFE
Sampling rate : 48.0 kHz
Frame rate : 31.250 FPS (1536 SPF)
Bit depth : 16 bits
Compression mode : Lossy
Stream size : 114 MiB (5%)
Language : English
Service kind : Complete Main
Default : No
Forced : No





Zoo S03E03


Zoo S03E03


Zoo S03E03


Zoo S03E03


Zoo S03E03

All episodes