Featured TV Shows


Zoo S03E04

Posted By: Tavaz
SD / HDTV IMDb
Zoo S03E04

Zoo S03E04
HDTV | AVI | 640x360 | MP4V-ES @ 1262 kbps | MPEG Audio @ 128 kbps | 43 min 1 s | 431 MiB
Genre: Drama

Set amidst a wave of violent animal attacks sweeping across the planet, a young renegade scientist is thrust into a race to unlock the mystery behind this pandemic before time runs out for animals and humans alike.

399754afe3ef43df8ca47fc3ad6a5c83.avi (430.8 MB)



General
Complete name : ./399754afe3ef43df8ca47fc3ad6a5c83.avi
Format : AVI
Format/Info : Audio Video Interleave
File size : 431 MiB
Duration : 43 min 1 s
Overall bit rate : 1 400 kb/s
Writing application : VirtualDubMod 1.5.10.2 (build 2542/release)
Writing library : VirtualDubMod build 2542/release

Video
ID : 0
Format : MPEG-4 Visual
Format profile : Simple@L3
Format settings, BVOP : No
Format settings, QPel : No
Format settings, GMC : No warppoints
Format settings, Matrix : Default (H.263)
Codec ID : XVID
Codec ID/Hint : XviD
Duration : 43 min 1 s
Bit rate : 1 263 kb/s
Width : 640 pixels
Height : 360 pixels
Display aspect ratio : 16:9
Frame rate : 23.976 (24000/1001) FPS
Color space : YUV
Chroma subsampling : 4:2:0
Bit depth : 8 bits
Scan type : Progressive
Compression mode : Lossy
Bits/(Pixel*Frame) : 0.229
Stream size : 389 MiB (90%)
Writing library : XviD 64

Audio
ID : 1
Format : MPEG Audio
Format version : Version 1
Format profile : Layer 3
Format settings : Joint stereo / MS Stereo
Mode : Joint stereo
Mode extension : MS Stereo
Codec ID : 55
Codec ID/Hint : MP3
Duration : 43 min 1 s
Bit rate mode : Constant
Bit rate : 128 kb/s
Channel(s) : 2 channels
Sampling rate : 48.0 kHz
Compression mode : Lossy
Stream size : 39.4 MiB (9%)
Alignment : Aligned on interleaves
Interleave, duration : 42 ms (1.00 video frame)
Interleave, preload duration : 504 ms





Zoo S03E04


Zoo S03E04


Zoo S03E04


Zoo S03E04


Zoo S03E04

All episodes