Featured TV Shows


Zoo S03E08

Posted By: Tavaz
720p (HD) / WEB-DL IMDb
Zoo S03E08

Zoo S03E08
WEB-DL | MKV | 1280x720 | English | H264 @ 1620 kbps | AC-3 @ 384 kbps | 43 min 8 s | 617 MiB
Subtitles: Swedish, Danish, Norwegian Bokmal, Finnish, Portuguese, English, French, Spanish, Russian, Polish, Korean, Chinese, Italian
Genre: Drama

Set amidst a wave of violent animal attacks sweeping across the planet, a young renegade scientist is thrust into a race to unlock the mystery behind this pandemic before time runs out for animals and humans alike.

Zoo.S03E08.Stakes.On.a.Plane.720p.NF.WEB-DL.DD5.1.x264-CasStudio.mkv (616.6 MB)



General
Unique ID : 121574930913152556521953061799571085417 (0x5B767AE0D6598D4A8C06D44EEA71D869)
Complete name : ./Zoo.S03E08.Stakes.On.a.Plane.720p.NF.WEB-DL.DD5.1.x264-CasStudio.mkv
Format : Matroska
Format version : Version 4 / Version 2
File size : 617 MiB
Duration : 43 min 8 s
Overall bit rate mode : Variable
Overall bit rate : 1 998 kb/s
Encoded date : UTC 2018-04-03 16:44:08
Writing application : mkvmerge v21.0.0 ('Tardigrades Will Inherit The Earth') 64-bit
Writing library : libebml v1.3.5 + libmatroska v1.4.8

Video
ID : 1
Format : AVC
Format/Info : Advanced Video Codec
Format profile : Main@L3.1
Format settings : CABAC / 3 Ref Frames
Format settings, CABAC : Yes
Format settings, RefFrames : 3 frames
Codec ID : V_MPEG4/ISO/AVC
Duration : 43 min 8 s
Bit rate mode : Variable
Bit rate : 1 620 kb/s
Maximum bit rate : 2 430 kb/s
Width : 1 280 pixels
Height : 720 pixels
Display aspect ratio : 16:9
Frame rate mode : Constant
Frame rate : 23.976 (24000/1001) FPS
Color space : YUV
Chroma subsampling : 4:2:0
Bit depth : 8 bits
Scan type : Progressive
Bits/(Pixel*Frame) : 0.073
Stream size : 497 MiB (81%)
Writing library : x264 core 118
Encoding settings : cabac=1 / ref=3 / deblock=1:0:0 / analyse=0x1:0x111 / me=umh / subme=10 / psy=1 / psy_rd=1.00:0.00 / mixed_ref=1 / me_range=24 / chroma_me=1 / trellis=2 / 8x8dct=0 / cqm=0 / deadzone=21,11 / fast_pskip=1 / chroma_qp_offset=-2 / threads=6 / sliced_threads=0 / nr=0 / decimate=1 / interlaced=0 / bluray_compat=0 / constrained_intra=0 / bframes=2 / b_pyramid=0 / b_adapt=2 / b_bias=0 / direct=3 / weightb=1 / open_gop=0 / weightp=2 / keyint=48 / keyint_min=25 / scenecut=0 / intra_refresh=0 / rc_lookahead=0 / rc=2pass / mbtree=1 / bitrate=1620 / ratetol=1.0 / qcomp=0.50 / qpmin=6 / qpmax=51 / qpstep=4 / cplxblur=20.0 / qblur=0.5 / vbv_maxrate=2430 / vbv_bufsize=3240 / nal_hrd=vbr / ip_ratio=1.40 / aq=1:1.00
Default : Yes
Forced : No

Audio
ID : 2
Format : AC-3
Format/Info : Audio Coding 3
Format settings, Endianness : Big
Codec ID : A_AC3
Duration : 43 min 8 s
Bit rate mode : Constant
Bit rate : 384 kb/s
Channel(s) : 6 channels
Channel positions : Front: L C R, Side: L R, LFE
Sampling rate : 48.0 kHz
Frame rate : 31.250 FPS (1536 SPF)
Bit depth : 16 bits
Compression mode : Lossy
Stream size : 119 MiB (19%)
Title : English
Language : English
Service kind : Complete Main
Default : Yes
Forced : No

Text #1
ID : 3
Format : UTF-8
Codec ID : S_TEXT/UTF8
Codec ID/Info : UTF-8 Plain Text
Duration : 42 min 28 s
Bit rate : 84 b/s
Count of elements : 910
Stream size : 26.2 KiB (0%)
Title : SDH
Language : English
Default : Yes
Forced : No

Text #2
ID : 4
Format : UTF-8
Codec ID : S_TEXT/UTF8
Codec ID/Info : UTF-8 Plain Text
Duration : 42 min 28 s
Bit rate : 71 b/s
Count of elements : 655
Stream size : 22.2 KiB (0%)
Language : Danish
Default : No
Forced : No

Text #3
ID : 5
Format : UTF-8
Codec ID : S_TEXT/UTF8
Codec ID/Info : UTF-8 Plain Text
Duration : 42 min 28 s
Bit rate : 79 b/s
Count of elements : 563
Stream size : 24.6 KiB (0%)
Title : European
Language : Spanish
Default : No
Forced : No

Text #4
ID : 6
Format : UTF-8
Codec ID : S_TEXT/UTF8
Codec ID/Info : UTF-8 Plain Text
Duration : 42 min 28 s
Bit rate : 68 b/s
Count of elements : 547
Stream size : 21.4 KiB (0%)
Language : Finnish
Default : No
Forced : No

Text #5
ID : 7
Format : UTF-8
Codec ID : S_TEXT/UTF8
Codec ID/Info : UTF-8 Plain Text
Duration : 42 min 28 s
Bit rate : 75 b/s
Count of elements : 649
Stream size : 23.4 KiB (0%)
Language : French
Default : No
Forced : No

Text #6
ID : 8
Format : UTF-8
Codec ID : S_TEXT/UTF8
Codec ID/Info : UTF-8 Plain Text
Duration : 42 min 28 s
Bit rate : 74 b/s
Count of elements : 660
Stream size : 23.3 KiB (0%)
Language : Italian
Default : No
Forced : No

Text #7
ID : 9
Format : UTF-8
Codec ID : S_TEXT/UTF8
Codec ID/Info : UTF-8 Plain Text
Duration : 42 min 28 s
Bit rate : 82 b/s
Count of elements : 668
Stream size : 25.7 KiB (0%)
Language : Korean
Default : No
Forced : No

Text #8
ID : 10
Format : UTF-8
Codec ID : S_TEXT/UTF8
Codec ID/Info : UTF-8 Plain Text
Duration : 42 min 28 s
Bit rate : 65 b/s
Count of elements : 566
Stream size : 20.2 KiB (0%)
Language : Norwegian Bokmal
Default : No
Forced : No

Text #9
ID : 11
Format : UTF-8
Codec ID : S_TEXT/UTF8
Codec ID/Info : UTF-8 Plain Text
Duration : 42 min 28 s
Bit rate : 59 b/s
Count of elements : 653
Stream size : 18.6 KiB (0%)
Language : Polish
Default : No
Forced : No

Text #10
ID : 12
Format : UTF-8
Codec ID : S_TEXT/UTF8
Codec ID/Info : UTF-8 Plain Text
Duration : 42 min 28 s
Bit rate : 74 b/s
Count of elements : 658
Stream size : 23.1 KiB (0%)
Language : Portuguese
Default : No
Forced : No

Text #11
ID : 13
Format : UTF-8
Codec ID : S_TEXT/UTF8
Codec ID/Info : UTF-8 Plain Text
Duration : 42 min 28 s
Bit rate : 119 b/s
Count of elements : 660
Stream size : 37.2 KiB (0%)
Language : Russian
Default : No
Forced : No

Text #12
ID : 14
Format : UTF-8
Codec ID : S_TEXT/UTF8
Codec ID/Info : UTF-8 Plain Text
Duration : 42 min 28 s
Bit rate : 69 b/s
Count of elements : 644
Stream size : 21.5 KiB (0%)
Language : Swedish
Default : No
Forced : No

Text #13
ID : 15
Format : UTF-8
Codec ID : S_TEXT/UTF8
Codec ID/Info : UTF-8 Plain Text
Duration : 42 min 28 s
Bit rate : 70 b/s
Count of elements : 565
Stream size : 21.9 KiB (0%)
Title : Simplified
Language : Chinese
Default : No
Forced : No

Text #14
ID : 16
Format : UTF-8
Codec ID : S_TEXT/UTF8
Codec ID/Info : UTF-8 Plain Text
Duration : 42 min 28 s
Bit rate : 74 b/s
Count of elements : 564
Stream size : 23.2 KiB (0%)
Title : Traditional
Language : Chinese
Default : No
Forced : No





Zoo S03E08


Zoo S03E08


Zoo S03E08


Zoo S03E08


Zoo S03E08

All episodes