Featured TV Shows


Zoo S03E11

Posted By: Tavaz
SD / HDTV IMDb
Zoo S03E11

Zoo S03E11
HDTV | AVI | 624x350 | MP4V-ES @ 1213 kbps | MPEG Audio @ 192 kbps | 43 min 11 s | 437 MiB
Genre: Drama

Set amidst a wave of violent animal attacks sweeping across the planet, a young renegade scientist is thrust into a race to unlock the mystery behind this pandemic before time runs out for animals and humans alike.

28832bffb5e840db90b6d9782cdab787.avi (437.0 MB)
28832bffb5e840db90b6d9782cdab787.vol000+01.par2 (750.0 KB)



General
Complete name : ./28832bffb5e840db90b6d9782cdab787.avi
Format : AVI
Format/Info : Audio Video Interleave
File size : 437 MiB
Duration : 43 min 11 s
Overall bit rate : 1 415 kb/s
Writing library : VirtualDub build 35491/release

Video
ID : 0
Format : MPEG-4 Visual
Format profile : Advanced Simple@L5
Format settings, BVOP : No
Format settings, QPel : No
Format settings, GMC : No warppoints
Format settings, Matrix : Default (H.263)
Codec ID : XVID
Codec ID/Hint : XviD
Duration : 43 min 11 s
Bit rate : 1 213 kb/s
Width : 624 pixels
Height : 350 pixels
Display aspect ratio : 16:9
Frame rate : 23.976 (24000/1001) FPS
Color space : YUV
Chroma subsampling : 4:2:0
Bit depth : 8 bits
Scan type : Progressive
Compression mode : Lossy
Bits/(Pixel*Frame) : 0.232
Stream size : 375 MiB (86%)
Writing library : XviD 64

Audio
ID : 1
Format : MPEG Audio
Format version : Version 1
Format profile : Layer 3
Format settings : Joint stereo / MS Stereo
Mode : Joint stereo
Mode extension : MS Stereo
Codec ID : 55
Codec ID/Hint : MP3
Duration : 43 min 11 s
Bit rate mode : Constant
Bit rate : 192 kb/s
Channel(s) : 2 channels
Sampling rate : 48.0 kHz
Compression mode : Lossy
Stream size : 59.3 MiB (14%)
Alignment : Split accross interleaves
Interleave, duration : 42 ms (1.00 video frame)
Interleave, preload duration : 500 ms
Writing library : LAME3.99.5





Zoo S03E11


Zoo S03E11


Zoo S03E11


Zoo S03E11


Zoo S03E11

All episodes