Featured TV Shows


A Gifted Man S01E14

Posted By: Tavaz
720p (HD) / HDTV IMDb
A Gifted Man S01E14

A Gifted Man S01E14
HDTV | MKV | 1280x720 | English | H264 @ 2791 kbps | AC-3 @ 384 kbps | 41 min 32 s | 963 MiB
Genre: Drama

A Gifted Man is an American television series, which premiered on CBS on September 23, 2011. The series is about a talented but self-absorbed surgeon who starts questioning his purpose in life when he is visited by the spirit of his deceased ex-wife. The pilot episode was directed by Jonathan Demme, who also serves as an executive producer on the show along with writer Susannah Grant. The first thirteen episodes were aired in the Friday 8:00 pm timeslot, while the final three episodes of the 16 episode season order were aired in the Friday 9:00 pm timeslot.

On May 10, 2012, A Gifted Man was canceled by CBS.

8ffb36c5d62b4cdeb4967058dbff58f8.mkv (962.9 MB)



General
Unique ID : 187071497772179281799676966939757244854 (0x8CBCA8F12D839C3F455A60D092A5F1B6)
Complete name : ./8ffb36c5d62b4cdeb4967058dbff58f8.mkv
Format : Matroska
Format version : Version 1
File size : 963 MiB
Duration : 41 min 32 s
Overall bit rate : 3 240 kb/s
Encoded date : UTC 2012-02-18 04:43:18
Writing application : mkvmerge v2.0.2 ('You're My Flame') built on Jul 16 2008 20:03:58
Writing library : libebml v0.7.7 + libmatroska v0.8.1

Video
ID : 1
Format : AVC
Format/Info : Advanced Video Codec
Format profile : High@L4.1
Format settings : CABAC / 5 Ref Frames
Format settings, CABAC : Yes
Format settings, RefFrames : 5 frames
Codec ID : V_MPEG4/ISO/AVC
Duration : 41 min 32 s
Bit rate : 2 792 kb/s
Width : 1 280 pixels
Height : 720 pixels
Display aspect ratio : 16:9
Frame rate mode : Constant
Frame rate : 23.976 (24000/1001) FPS
Color space : YUV
Chroma subsampling : 4:2:0
Bit depth : 8 bits
Scan type : Progressive
Bits/(Pixel*Frame) : 0.126
Stream size : 830 MiB (86%)
Writing library : x264 core 120 r2164 da19765
Encoding settings : cabac=1 / ref=5 / deblock=1:0:0 / analyse=0x3:0x113 / me=umh / subme=8 / psy=1 / psy_rd=1.00:0.00 / mixed_ref=1 / me_range=16 / chroma_me=1 / trellis=1 / 8x8dct=1 / cqm=0 / deadzone=21,11 / fast_pskip=1 / chroma_qp_offset=-2 / threads=12 / sliced_threads=0 / nr=0 / decimate=1 / interlaced=0 / bluray_compat=0 / constrained_intra=0 / bframes=3 / b_pyramid=2 / b_adapt=2 / b_bias=0 / direct=3 / weightb=1 / open_gop=0 / weightp=2 / keyint=250 / keyint_min=23 / scenecut=40 / intra_refresh=0 / rc_lookahead=50 / rc=crf / mbtree=1 / crf=19.0 / qcomp=0.60 / qpmin=0 / qpmax=69 / qpstep=4 / ip_ratio=1.40 / aq=1:1.00
Language : English
Default : Yes
Forced : No

Audio
ID : 2
Format : AC-3
Format/Info : Audio Coding 3
Format settings, Endianness : Big
Codec ID : A_AC3
Duration : 41 min 32 s
Bit rate mode : Constant
Bit rate : 384 kb/s
Channel(s) : 6 channels
Channel positions : Front: L C R, Side: L R, LFE
Sampling rate : 48.0 kHz
Frame rate : 31.250 FPS (1536 SPF)
Bit depth : 16 bits
Compression mode : Lossy
Stream size : 114 MiB (12%)
Service kind : Complete Main
Default : Yes
Forced : No





A Gifted Man S01E14


A Gifted Man S01E14


A Gifted Man S01E14


A Gifted Man S01E14


A Gifted Man S01E14

All episodes