Featured TV Shows


Batwoman S01E05

Posted By: Tavaz
1080p (FullHD) / WEBRip IMDb
Batwoman S01E05

Batwoman S01E05
WEB-DL | MKV | 1920x960 | German / English | H264 @ 6186 kbps | E-AC-3 @ 640 kbps | 42 min 23 s | 2.21 GiB
Subtitles: German, English
Genre: Mystery, Krimi


In der Serie geht es um Kate Kane, die als lesbische und hochqualifizierte Straßenkämpferin, darauf vorbereitet ist, das kriminelle Wiederaufleben der Stadt Gotham zu bekämpfen.

batwoman.s01e05.german.dl.1080p.web.h264-wayne.mkv (2.2 GB)



General
Unique ID : 308553895083948440078048300503037682484 (0xE821518FC42B1AEF1BA331680580A334)
Complete name : ./batwoman.s01e05.german.dl.1080p.web.h264-wayne.mkv
Format : Matroska
Format version : Version 4 / Version 2
File size : 2.21 GiB
Duration : 42 min 23 s
Overall bit rate : 7 469 kb/s
Encoded date : UTC 2019-12-19 23:17:55
Writing application : mkvmerge v9.8.0 ('Kuglblids') 64bit
Writing library : libebml v1.3.9 + libmatroska v1.4.5

Video
ID : 1
Format : AVC
Format/Info : Advanced Video Codec
Format profile : High@L4
Format settings : CABAC / 4 Ref Frames
Format settings, CABAC : Yes
Format settings, RefFrames : 4 frames
Codec ID : V_MPEG4/ISO/AVC
Duration : 42 min 23 s
Bit rate mode : Constant
Bit rate : 6 186 kb/s
Nominal bit rate : 10 000 kb/s
Width : 1 920 pixels
Height : 960 pixels
Display aspect ratio : 2.000
Frame rate mode : Constant
Frame rate : 23.976 (24000/1001) FPS
Color space : YUV
Chroma subsampling : 4:2:0
Bit depth : 8 bits
Scan type : Progressive
Bits/(Pixel*Frame) : 0.140
Stream size : 1.83 GiB (83%)
Default : Yes
Forced : No
Color range : Limited
Color primaries : BT.709
Transfer characteristics : BT.709
Matrix coefficients : BT.709

Audio #1
ID : 2
Format : E-AC-3
Format/Info : Enhanced Audio Coding 3
Format settings, Endianness : Big
Codec ID : A_EAC3
Duration : 42 min 23 s
Bit rate mode : Constant
Bit rate : 640 kb/s
Channel(s) : 6 channels
Channel positions : Front: L C R, Side: L R, LFE
Sampling rate : 48.0 kHz
Frame rate : 187.500 FPS (256 SPF)
Compression mode : Lossy
Stream size : 194 MiB (9%)
Language : German
Service kind : Complete Main
Default : Yes
Forced : No

Audio #2
ID : 3
Format : E-AC-3
Format/Info : Enhanced Audio Coding 3
Format settings, Endianness : Big
Codec ID : A_EAC3
Duration : 42 min 23 s
Bit rate mode : Constant
Bit rate : 640 kb/s
Channel(s) : 6 channels
Channel positions : Front: L C R, Side: L R, LFE
Sampling rate : 48.0 kHz
Frame rate : 187.500 FPS (256 SPF)
Compression mode : Lossy
Stream size : 194 MiB (9%)
Language : English
Service kind : Complete Main
Default : No
Forced : No

Text #1
ID : 4
Format : UTF-8
Codec ID : S_TEXT/UTF8
Codec ID/Info : UTF-8 Plain Text
Duration : 41 min 37 s
Bit rate : 62 b/s
Count of elements : 553
Stream size : 19.1 KiB (0%)
Title : German
Language : German
Default : No
Forced : No

Text #2
ID : 5
Format : UTF-8
Codec ID : S_TEXT/UTF8
Codec ID/Info : UTF-8 Plain Text
Duration : 41 min 37 s
Bit rate : 62 b/s
Count of elements : 582
Stream size : 18.9 KiB (0%)
Title : English
Language : English
Default : No
Forced : No





Batwoman S01E05


Batwoman S01E05


Batwoman S01E05


Batwoman S01E05


Batwoman S01E05

All episodes