Index
# A B C D E F G H I J K L M N O P Q R S T U V W Y Z
Tags
Language
Tags
November 2022
Su Mo Tu We Th Fr Sa
30 31 1 2 3 4 5
6 7 8 9 10 11 12
13 14 15 16 17 18 19
20 21 22 23 24 25 26
27 28 29 30 1 2 3

Featured TV Shows


Big Pacific (2017) S01E05 · Behind the Scenes

Posted By: Tavaz
720p (HD) / BDRip IMDb
Big Pacific (2017) S01E05 · Behind the Scenes

Big Pacific (2017) S01E05 · Behind the Scenes
BDRip | MKV | 1280x720 | English | H264 @ 4366 kbps | DTS @ 1509 kbps | 53 min 12 s | 2.18 GiB
Genre: Documentary

Follow the adventures of the filmmakers behind "Big Pacific."This "Making Of" special explores the highlights and challenges of wildlife filmmaking.

f5b062d41ca94ed4b0fdfe5205014ce0.mkv (2.2 GB)



General
Unique ID : 31198258378959454494834165791907039173 (0x177890E589CF4F4DF9F9C3D1401EC7C5)
Complete name : ./f5b062d41ca94ed4b0fdfe5205014ce0.mkv
Format : Matroska
Format version : Version 4 / Version 2
File size : 2.18 GiB
Duration : 53 min 12 s
Overall bit rate : 5 877 kb/s
Encoded date : UTC 2018-03-16 17:50:13
Writing application : mkvmerge v20.0.0 ('I Am The Sun') 64-bit
Writing library : libebml v1.3.5 + libmatroska v1.4.8

Video
ID : 1
Format : AVC
Format/Info : Advanced Video Codec
Format profile : High@L4.1
Format settings : CABAC / 5 Ref Frames
Format settings, CABAC : Yes
Format settings, RefFrames : 5 frames
Codec ID : V_MPEG4/ISO/AVC
Duration : 53 min 12 s
Bit rate : 4 366 kb/s
Width : 1 280 pixels
Height : 720 pixels
Display aspect ratio : 16:9
Frame rate mode : Constant
Frame rate : 25.000 FPS
Color space : YUV
Chroma subsampling : 4:2:0
Bit depth : 8 bits
Scan type : Progressive
Bits/(Pixel*Frame) : 0.189
Stream size : 1.62 GiB (74%)
Writing library : x264 core 155 r2901 7d0ff22
Encoding settings : cabac=1 / ref=5 / deblock=1:0:0 / analyse=0x3:0x133 / me=umh / subme=7 / psy=1 / psy_rd=1.00:0.00 / mixed_ref=1 / me_range=16 / chroma_me=1 / trellis=1 / 8x8dct=1 / cqm=0 / deadzone=21,11 / fast_pskip=0 / chroma_qp_offset=-2 / threads=22 / lookahead_threads=3 / sliced_threads=0 / nr=0 / decimate=1 / interlaced=0 / bluray_compat=0 / constrained_intra=0 / bframes=3 / b_pyramid=2 / b_adapt=1 / b_bias=0 / direct=1 / weightb=1 / open_gop=0 / weightp=2 / keyint=250 / keyint_min=25 / scenecut=40 / intra_refresh=0 / rc_lookahead=40 / rc=2pass / mbtree=1 / bitrate=4366 / ratetol=1.0 / qcomp=0.60 / qpmin=0 / qpmax=69 / qpstep=4 / cplxblur=20.0 / qblur=0.5 / ip_ratio=1.40 / aq=1:1.00
Language : English
Default : Yes
Forced : No

Audio
ID : 2
Format : DTS
Format/Info : Digital Theater Systems
Mode : 16
Format settings, Endianness : Big
Codec ID : A_DTS
Duration : 53 min 12 s
Bit rate mode : Constant
Bit rate : 1 509 kb/s
Channel(s) : 6 channels
Channel positions : Front: L C R, Side: L R, LFE
Sampling rate : 48.0 kHz
Frame rate : 93.750 FPS (512 SPF)
Bit depth : 24 bits
Compression mode : Lossy
Stream size : 574 MiB (26%)
Language : English
Default : Yes
Forced : No





Big Pacific (2017) S01E05 · Behind the Scenes


Big Pacific (2017) S01E05 · Behind the Scenes


Big Pacific (2017) S01E05 · Behind the Scenes


Big Pacific (2017) S01E05 · Behind the Scenes


Big Pacific (2017) S01E05 · Behind the Scenes

All episodes