Featured TV Shows


Criminal Minds S04E08

Posted By: Tavaz
SD / WEB-DL IMDb
Criminal Minds S04E08

Criminal Minds S04E08
WEB-DL | MKV | 720x404 | Italian | H264 @ 896 kbps | AAC @ 111 kbps | 39 min 59 s | 300 MiB
Genre: Crime, Dramma, Mistero

Criminal Minds è una serie poliziesca incentrata sull'Unità di analisi criminale (BAU) che ha sede presso l'accademia dell'FBI a Quantico, in Virginia. L'unità è composta da psichiatri, psicologi e criminologi in grado di “pensare” come gli S.I., sigla che utilizzano per indicare i “soggetti ignoti” che compiono delitti seriali sui quali sono chiamati ad indagare. La squadra interviene in ogni località degli Stati Uniti ogni qual volta si sospetti che i delitti possano essere opera di un serial killer, lavora stilando un profilo psicologico del S.I. in modo da anticiparne le mosse e catturarlo. La squadra è formata da diversi elementi, ognuno con un suo ruolo ben preciso: c'è chi ha l'incarico di indagare sul campo parlando con le famiglie e relazionandosi con le forze di polizia locale, chi si immedesima nel killer per comprenderlo, chi fa ricerche sui soggetti coinvolti. Ovviamente vengono analizzate anche le relazioni tra i vari personaggi.

Criminal.Minds.14x08.Ashley.ITA.WEBMux.x264-NovaRip.mkv (299.6 MB)



General
Unique ID : 336962389270442226332878033343791213002 (0xFD809876CE182933C22338641E8FA9CA)
Complete name : ./Criminal.Minds.14x08.Ashley.ITA.WEBMux.x264-NovaRip.mkv
Format : Matroska
Format version : Version 2
File size : 300 MiB
Duration : 39 min 59 s
Overall bit rate : 1 047 kb/s
Encoded date : UTC 2018-12-15 17:22:17
Writing application : mkvmerge v8.5.2 ('Crosses') 64bit
Writing library : libebml v1.3.3 + libmatroska v1.4.4

Video
ID : 1
Format : AVC
Format/Info : Advanced Video Codec
Format profile : High@L3.1
Format settings : CABAC / 6 Ref Frames
Format settings, CABAC : Yes
Format settings, RefFrames : 6 frames
Codec ID : V_MPEG4/ISO/AVC
Duration : 39 min 59 s
Bit rate : 896 kb/s
Width : 720 pixels
Height : 404 pixels
Display aspect ratio : 16:9
Frame rate mode : Constant
Frame rate : 25.000 FPS
Original frame rate : 24.000 FPS
Color space : YUV
Chroma subsampling : 4:2:0
Bit depth : 8 bits
Scan type : Progressive
Bits/(Pixel*Frame) : 0.123
Stream size : 267 MiB (89%)
Writing library : x264 core 155 r2893 b00bcaf
Encoding settings : cabac=1 / ref=6 / deblock=1:-2:-2 / analyse=0x3:0x133 / me=umh / subme=7 / psy=1 / psy_rd=1.00:0.00 / mixed_ref=1 / me_range=16 / chroma_me=1 / trellis=2 / 8x8dct=1 / cqm=0 / deadzone=21,11 / fast_pskip=0 / chroma_qp_offset=-2 / threads=6 / lookahead_threads=1 / sliced_threads=0 / nr=0 / decimate=1 / interlaced=0 / bluray_compat=0 / constrained_intra=0 / bframes=5 / b_pyramid=2 / b_adapt=2 / b_bias=0 / direct=3 / weightb=1 / open_gop=0 / weightp=2 / keyint=250 / keyint_min=24 / scenecut=40 / intra_refresh=0 / rc_lookahead=40 / rc=2pass / mbtree=1 / bitrate=896 / ratetol=1.0 / qcomp=0.60 / qpmin=0 / qpmax=69 / qpstep=4 / cplxblur=20.0 / qblur=0.5 / ip_ratio=1.40 / aq=1:1.00
Language : English
Default : Yes
Forced : Yes

Audio
ID : 2
Format : AAC
Format/Info : Advanced Audio Codec
Format profile : LC
Codec ID : A_AAC-2
Duration : 39 min 59 s
Bit rate : 112 kb/s
Channel(s) : 2 channels
Channel positions : Front: L R
Sampling rate : 48.0 kHz
Frame rate : 46.875 FPS (1024 SPF)
Compression mode : Lossy
Delay relative to video : 9 ms
Stream size : 32.0 MiB (11%)
Title : ITA
Language : Italian
Default : Yes
Forced : Yes





Criminal Minds S04E08


Criminal Minds S04E08


Criminal Minds S04E08


Criminal Minds S04E08


Criminal Minds S04E08

All episodes