Index
# A B C D E F G H I J K L M N O P Q R S T U V W Y Z
Tags
Language
Tags

Featured TV Shows


Dirty Money S01E09

Posted By: Tavaz
720p (HD) / HDTV IMDb
Dirty Money S01E09

Dirty Money S01E09
HDTV | MKV | 1280x714 | H264 @ 3206 kbps | AC-3 @ 384 kbps | 21 min 17 s | 558 MiB
Genre: Crime, Documentary


From crippling payday loans to cars that cheat emissions tests, this investigative series exposes brazen acts of corporate greed and corruption.

dirty.money.s01e09.720p.hdtv.x264-momentum.mkv (557.9 MB)



General
Unique ID : 29177156868977987069284618368354577319 (0x15F350E6122CFD899DC63A1268276BA7)
Complete name : ./dirty.money.s01e09.720p.hdtv.x264-momentum.mkv
Format : Matroska
Format version : Version 2
File size : 558 MiB
Duration : 21 min 17 s
Overall bit rate : 3 664 kb/s
Encoded date : UTC 2011-10-14 18:33:36
Writing application : mkvmerge v4.0.0 ('The Stars were mine') built on Aug 7 2011 22:31:52
Writing library : libebml v1.2.1 + libmatroska v1.2.0

Video
ID : 1
Format : AVC
Format/Info : Advanced Video Codec
Format profile : High@L4.1
Format settings : CABAC / 5 Ref Frames
Format settings, CABAC : Yes
Format settings, RefFrames : 5 frames
Codec ID : V_MPEG4/ISO/AVC
Duration : 21 min 17 s
Bit rate : 3 207 kb/s
Width : 1 280 pixels
Height : 714 pixels
Display aspect ratio : 16:9
Frame rate mode : Constant
Frame rate : 23.976 (24000/1001) FPS
Color space : YUV
Chroma subsampling : 4:2:0
Bit depth : 8 bits
Scan type : Progressive
Bits/(Pixel*Frame) : 0.146
Stream size : 488 MiB (88%)
Writing library : x264 core 118 r2085 8a62835
Encoding settings : cabac=1 / ref=5 / deblock=1:0:0 / analyse=0x3:0x113 / me=umh / subme=8 / psy=1 / psy_rd=1.00:0.00 / mixed_ref=1 / me_range=16 / chroma_me=1 / trellis=1 / 8x8dct=1 / cqm=0 / deadzone=21,11 / fast_pskip=1 / chroma_qp_offset=-2 / threads=16 / sliced_threads=0 / nr=0 / decimate=1 / interlaced=0 / bluray_compat=0 / constrained_intra=0 / bframes=3 / b_pyramid=2 / b_adapt=2 / b_bias=0 / direct=3 / weightb=1 / open_gop=0 / weightp=2 / keyint=240 / keyint_min=24 / scenecut=40 / intra_refresh=0 / rc_lookahead=50 / rc=crf / mbtree=1 / crf=20.0 / qcomp=0.60 / qpmin=0 / qpmax=69 / qpstep=4 / ip_ratio=1.40 / aq=1:1.00
Language : English
Default : No
Forced : No

Audio
ID : 2
Format : AC-3
Format/Info : Audio Coding 3
Format settings, Endianness : Big
Codec ID : A_AC3
Duration : 21 min 17 s
Bit rate mode : Constant
Bit rate : 384 kb/s
Channel(s) : 6 channels
Channel positions : Front: L C R, Side: L R, LFE
Sampling rate : 48.0 kHz
Frame rate : 31.250 FPS (1536 SPF)
Bit depth : 16 bits
Compression mode : Lossy
Stream size : 58.5 MiB (10%)
Service kind : Complete Main
Default : Yes
Forced : No





Dirty Money S01E09


Dirty Money S01E09


Dirty Money S01E09


Dirty Money S01E09


Dirty Money S01E09

All episodes