Index
# A B C D E F G H I J K L M N O P Q R S T U V W X Y Z
Tags
Language
Tags
May 2024
Su Mo Tu We Th Fr Sa
28 29 30 1 2 3 4
5 6 7 8 9 10 11
12 13 14 15 16 17 18
19 20 21 22 23 24 25
26 27 28 29 30 31 1

Featured TV Shows


Bibi Blocksberg S06E05

Posted By: Tavaz
720p (HD) / WEBRip IMDb
Bibi Blocksberg S06E05

Bibi Blocksberg S06E05
WEBRip | MKV | 1280x720 | Deutsch | H264 @ 2848 kbps | E-AC-3 @ 128.0 kbps | 26 min 4 s | 556 MiB
Genre: Animation, Komödie, Krimi


Die junge Hexe Bibi Blocksberg lernt jeden Tag neue Dinge über die Hexerei. So gelingt es ihr, ihre Mutter Barbara mithilfe eines Spruchs auf einem Hexenkongress zu retten, einen Schatz zu finden, Gold herbeizuhexen und eine böse Hexe auszutricksen. Doch manchmal verhext Bibi sich auch und so kommen aus dem Briefkasten plötzlich Kobolde, ein Flugdrache richtet großes Durcheinander an, Bibi landet auf einem Piratenschiff und dann verschwindet versehentlich ihr Vater Bernhard. Doch mit der Unterstützung ihrer erfahrenen Oma Grete und ihrer Mutter überwindet Bibi jede Herausforderung.

dmpd-bibi.blocksberg.s06e05.german.720p.web.x264.mkv (555.6 MB)



General
Unique ID : 190515627674505094331593771310132880925 (0x8F53F9A818D1ACE2273851A3A855E61D)
Complete name : ./dmpd-bibi.blocksberg.s06e05.german.720p.web.x264.mkv
Format : Matroska
Format version : Version 4
File size : 556 MiB
Duration : 26 min 4 s
Overall bit rate mode : Variable
Overall bit rate : 2 978 kb/s
Encoded date : UTC 2022-09-20 18:18:52
Writing application : mkvmerge v70.0.0 ('Caught A Lite Sneeze') 64-bit
Writing library : libebml v1.4.2 + libmatroska v1.6.4

Video
ID : 1
Format : AVC
Format/Info : Advanced Video Codec
Format profile : Main@L3.1
Format settings : CABAC / 3 Ref Frames
Format settings, CABAC : Yes
Format settings, Reference frames : 3 frames
Codec ID : V_MPEG4/ISO/AVC
Duration : 26 min 4 s
Bit rate mode : Variable
Bit rate : 2 849 kb/s
Nominal bit rate : 3 000 kb/s
Maximum bit rate : 4 500 kb/s
Width : 1 280 pixels
Height : 720 pixels
Display aspect ratio : 16:9
Frame rate mode : Constant
Frame rate : 25.000 FPS
Color space : YUV
Chroma subsampling : 4:2:0
Bit depth : 8 bits
Scan type : Progressive
Bits/(Pixel*Frame) : 0.124
Stream size : 531 MiB (96%)
Writing library : x264 core 148 r2727 7d026e8
Encoding settings : cabac=1 / ref=3 / deblock=1:0:0 / analyse=0x1:0x111 / me=umh / subme=10 / psy=1 / psy_rd=1.00:0.00 / mixed_ref=1 / me_range=24 / chroma_me=1 / trellis=2 / 8x8dct=0 / cqm=0 / deadzone=21,11 / fast_pskip=1 / chroma_qp_offset=-2 / threads=6 / lookahead_threads=1 / sliced_threads=0 / nr=0 / decimate=1 / interlaced=0 / bluray_compat=0 / stitchable=1 / constrained_intra=0 / bframes=2 / b_pyramid=0 / b_adapt=2 / b_bias=0 / direct=3 / weightb=1 / open_gop=0 / weightp=2 / keyint=250 / keyint_min=126 / scenecut=0 / intra_refresh=0 / rc_lookahead=50 / rc=2pass / mbtree=1 / bitrate=3000 / ratetol=1.0 / qcomp=0.50 / qpmin=6 / qpmax=51 / qpstep=4 / cplxblur=20.0 / qblur=0.5 / vbv_maxrate=4500 / vbv_bufsize=6000 / nal_hrd=vbr / filler=0 / ip_ratio=1.40 / aq=1:1.00
Default : Yes
Forced : No

Audio
ID : 4
Format : E-AC-3
Format/Info : Enhanced AC-3
Commercial name : Dolby Digital Plus
Codec ID : A_EAC3
Duration : 26 min 4 s
Bit rate mode : Constant
Bit rate : 128 kb/s
Channel(s) : 2 channels
Channel layout : L R
Sampling rate : 48.0 kHz
Frame rate : 31.250 FPS (1536 SPF)
Compression mode : Lossy
Stream size : 23.9 MiB (4%)
Title : German
Language : German
Service kind : Complete Main
Default : Yes
Forced : No





Bibi Blocksberg S06E05


Bibi Blocksberg S06E05


Bibi Blocksberg S06E05


Bibi Blocksberg S06E05


Bibi Blocksberg S06E05

All episodes