Index
# A B C D E F G H I J K L M N O P Q R S T U V W Y Z
Tags
Language
Tags

Featured TV Shows


Doctor Who S03E05

Posted By: Tavaz
720p (HD) / BDRip IMDb
Doctor Who S03E05

Doctor Who S03E05
BDRip | MKV | 1264x720 | English | H264 @ 4889 kbps | DTS @ 1509 kbps | 48 min 49 s | 2.18 GiB
Genre: Drama

The Doctor is a Time Lord: a 900 year old alien with 2 hearts, part of a gifted civilization who mastered time travel. The Doctor saves planets for a living – more of a hobby actually, and the Doctor's very, very good at it.

ddbab581cfed481f8c55516d7aec08ac.mkv (2.2 GB)



General
Complete name : ./ddbab581cfed481f8c55516d7aec08ac.mkv
Format : Matroska
Format version : Version 2
File size : 2.18 GiB
Duration : 48 min 49 s
Overall bit rate : 6 401 kb/s
Writing application : mkvmerge v4.1.1 ('Bouncin' Back') built on Jul 3 2010 22:54:08
Writing library : libebml v1.0.0 + libmatroska v1.0

Video
ID : 1
Format : AVC
Format/Info : Advanced Video Codec
Format profile : High@L4.1
Format settings : CABAC / 5 Ref Frames
Format settings, CABAC : Yes
Format settings, RefFrames : 5 frames
Codec ID : V_MPEG4/ISO/AVC
Duration : 48 min 49 s
Bit rate : 4 889 kb/s
Width : 1 264 pixels
Height : 720 pixels
Display aspect ratio : 16:9
Frame rate mode : Constant
Frame rate : 23.976 (24000/1001) FPS
Color space : YUV
Chroma subsampling : 4:2:0
Bit depth : 8 bits
Scan type : Progressive
Bits/(Pixel*Frame) : 0.224
Stream size : 1.63 GiB (74%)
Writing library : x264 core 138 r2358 9e941d1
Encoding settings : cabac=1 / ref=5 / deblock=1:-2:-2 / analyse=0x3:0x113 / me=umh / subme=8 / psy=1 / psy_rd=1.00:0.00 / mixed_ref=1 / me_range=16 / chroma_me=1 / trellis=1 / 8x8dct=1 / cqm=0 / deadzone=21,11 / fast_pskip=1 / chroma_qp_offset=-2 / threads=12 / lookahead_threads=2 / sliced_threads=0 / nr=0 / decimate=1 / interlaced=0 / bluray_compat=0 / constrained_intra=0 / bframes=3 / b_pyramid=2 / b_adapt=2 / b_bias=0 / direct=3 / weightb=1 / open_gop=0 / weightp=2 / keyint=240 / keyint_min=24 / scenecut=40 / intra_refresh=0 / rc_lookahead=50 / rc=2pass / mbtree=1 / bitrate=4889 / ratetol=1.0 / qcomp=0.60 / qpmin=0 / qpmax=69 / qpstep=4 / cplxblur=20.0 / qblur=0.5 / ip_ratio=1.40 / aq=1:1.00
Language : English
Default : Yes
Forced : No

Audio
ID : 2
Format : DTS
Format/Info : Digital Theater Systems
Mode : 16
Format settings, Endianness : Big
Codec ID : A_DTS
Duration : 48 min 49 s
Bit rate mode : Constant
Bit rate : 1 509 kb/s
Channel(s) : 6 channels
Channel positions : Front: L C R, Side: L R, LFE
Sampling rate : 48.0 kHz
Frame rate : 93.750 FPS (512 SPF)
Bit depth : 24 bits
Compression mode : Lossy
Stream size : 527 MiB (24%)
Language : English
Default : Yes
Forced : No

Menu
00:00:00.000 : en:00:00:00.000
00:04:01.575 : en:00:04:01.575
00:08:20.041 : en:00:08:20.041
00:12:57.026 : en:00:12:57.026
00:17:31.092 : en:00:17:31.092
00:21:57.691 : en:00:21:57.691
00:26:04.813 : en:00:26:04.813
00:29:00.322 : en:00:29:00.322
00:33:35.347 : en:00:33:35.347
00:37:46.931 : en:00:37:46.931
00:42:36.387 : en:00:42:36.387
00:46:58.315 : en:00:46:58.315
00:47:32.433 : en:00:47:32.433





Doctor Who S03E05


Doctor Who S03E05


Doctor Who S03E05


Doctor Who S03E05


Doctor Who S03E05

All episodes