Index
# A B C D E F G H I J K L M N O P Q R S T U V W Y Z
Tags
Language
Tags

Featured TV Shows


Doctor Who S04E11

Posted By: Tavaz
720p (HD) / BDRip IMDb
Doctor Who S04E11

Doctor Who S04E11
BDRip | MKV | 1264x720 | English | H264 @ 4515 kbps | DTS @ 1509 kbps | 51 min 51 s | 2.18 GiB
Genre: Drama

The Doctor is a Time Lord: a 900 year old alien with 2 hearts, part of a gifted civilization who mastered time travel. The Doctor saves planets for a living – more of a hobby actually, and the Doctor's very, very good at it.

31fa3f247237482bb4c8a60f669eb90b.mkv (2.2 GB)



General
Complete name : ./31fa3f247237482bb4c8a60f669eb90b.mkv
Format : Matroska
Format version : Version 2
File size : 2.18 GiB
Duration : 51 min 51 s
Overall bit rate : 6 026 kb/s
Writing application : mkvmerge v4.1.1 ('Bouncin' Back') built on Jul 3 2010 22:54:08
Writing library : libebml v1.0.0 + libmatroska v1.0

Video
ID : 1
Format : AVC
Format/Info : Advanced Video Codec
Format profile : High@L4.1
Format settings : CABAC / 5 Ref Frames
Format settings, CABAC : Yes
Format settings, RefFrames : 5 frames
Codec ID : V_MPEG4/ISO/AVC
Duration : 51 min 51 s
Bit rate : 4 515 kb/s
Width : 1 264 pixels
Height : 720 pixels
Display aspect ratio : 16:9
Frame rate mode : Constant
Frame rate : 23.976 (24000/1001) FPS
Color space : YUV
Chroma subsampling : 4:2:0
Bit depth : 8 bits
Scan type : Progressive
Bits/(Pixel*Frame) : 0.207
Stream size : 1.59 GiB (73%)
Writing library : x264 core 138 r2358 9e941d1
Encoding settings : cabac=1 / ref=5 / deblock=1:-2:-2 / analyse=0x3:0x113 / me=umh / subme=8 / psy=1 / psy_rd=1.00:0.00 / mixed_ref=1 / me_range=16 / chroma_me=1 / trellis=1 / 8x8dct=1 / cqm=0 / deadzone=21,11 / fast_pskip=1 / chroma_qp_offset=-2 / threads=18 / lookahead_threads=3 / sliced_threads=0 / nr=0 / decimate=1 / interlaced=0 / bluray_compat=0 / constrained_intra=0 / bframes=3 / b_pyramid=2 / b_adapt=2 / b_bias=0 / direct=3 / weightb=1 / open_gop=0 / weightp=2 / keyint=240 / keyint_min=24 / scenecut=40 / intra_refresh=0 / rc_lookahead=50 / rc=2pass / mbtree=1 / bitrate=4515 / ratetol=1.0 / qcomp=0.60 / qpmin=0 / qpmax=69 / qpstep=4 / cplxblur=20.0 / qblur=0.5 / ip_ratio=1.40 / aq=1:1.00
Language : English
Default : Yes
Forced : No

Audio
ID : 2
Format : DTS
Format/Info : Digital Theater Systems
Mode : 16
Format settings, Endianness : Big
Codec ID : A_DTS
Duration : 51 min 51 s
Bit rate mode : Constant
Bit rate : 1 509 kb/s
Channel(s) : 6 channels
Channel positions : Front: L C R, Side: L R, LFE
Sampling rate : 48.0 kHz
Frame rate : 93.750 FPS (512 SPF)
Bit depth : 24 bits
Compression mode : Lossy
Stream size : 560 MiB (25%)
Language : English
Default : Yes
Forced : No

Menu
00:00:00.000 : en:00:00:00.000
00:06:00.443 : en:00:06:00.443
00:10:54.946 : en:00:10:54.946
00:14:33.873 : en:00:14:33.873
00:16:47.590 : en:00:16:47.590
00:20:14.839 : en:00:20:14.839
00:25:55.262 : en:00:25:55.262
00:31:07.157 : en:00:31:07.157
00:34:56.594 : en:00:34:56.594
00:38:00.111 : en:00:38:00.111
00:43:50.419 : en:00:43:50.419
00:50:27.358 : en:00:50:27.358
00:51:01.517 : en:00:51:01.517





Doctor Who S04E11


Doctor Who S04E11


Doctor Who S04E11


Doctor Who S04E11


Doctor Who S04E11

All episodes