Index
# A B C D E F G H I J K L M N O P Q R S T U V W Y Z
Tags
Language
Tags
December 2022
Su Mo Tu We Th Fr Sa
27 28 29 30 1 2 3
4 5 6 7 8 9 10
11 12 13 14 15 16 17
18 19 20 21 22 23 24
25 26 27 28 29 30 31

Featured TV Shows


Family Law S02E08

Posted By: Tavaz
1080p (FullHD) / WEBRip IMDb
Family Law S02E08

Family Law S02E08
WEBRip | MKV | 1920x1080 | English | H264 @ 3633 kbps | AC-3 @ 384 kbps | 44 min 3 s | 1.24 GiB
Subtitles: Suomi, Svenska, Dansk
Genre: Drama


Lawyer and recovering alcoholic Abigail Bianchi is struggling to put her career and family back together after hitting rock bottom. As a condition of her probation, Abby is forced to work at her estranged father’s firm, Svensson and Associates, and practice in family law for the first time while forging new relationships with the half-brother and half-sister whom she’s never met. The result is a dysfunctional family law firm operating to help other families with their own dysfunctions.

0d82c467ac994d93af513dd68d00c27a.mkv (1.2 GB)



General
Unique ID : 275501053900208734326962930880313764573 (0xCF4392AC4E135AE4A5A78C17D0732ADD)
Complete name : ./0d82c467ac994d93af513dd68d00c27a.mkv
Format : Matroska
Format version : Version 4 / Version 2
File size : 1.24 GiB
Duration : 44 min 3 s
Overall bit rate mode : Variable
Overall bit rate : 4 020 kb/s
Encoded date : UTC 2022-08-04 12:30:35
Writing application : mkvmerge v66.0.0 ('Josie') 64-bit
Writing library : libebml v1.4.2 + libmatroska v1.6.4

Video
ID : 1
Format : AVC
Format/Info : Advanced Video Codec
Format profile : High@L4.1
Format settings : CABAC / 3 Ref Frames
Format settings, CABAC : Yes
Format settings, RefFrames : 3 frames
Codec ID : V_MPEG4/ISO/AVC
Duration : 44 min 3 s
Bit rate mode : Variable
Bit rate : 3 633 kb/s
Maximum bit rate : 7 200 kb/s
Width : 1 920 pixels
Height : 1 080 pixels
Display aspect ratio : 16:9
Frame rate mode : Constant
Frame rate : 23.976 (24000/1001) FPS
Color space : YUV
Chroma subsampling : 4:2:0
Bit depth : 8 bits
Scan type : Progressive
Bits/(Pixel*Frame) : 0.073
Stream size : 1.12 GiB (90%)
Default : Yes
Forced : No

Audio
ID : 2
Format : AC-3
Format/Info : Audio Coding 3
Format settings, Endianness : Big
Codec ID : A_AC3
Duration : 44 min 3 s
Bit rate mode : Constant
Bit rate : 384 kb/s
Channel(s) : 6 channels
Channel positions : Front: L C R, Side: L R, LFE
Sampling rate : 48.0 kHz
Frame rate : 31.250 FPS (1536 SPF)
Bit depth : 16 bits
Compression mode : Lossy
Stream size : 121 MiB (10%)
Title : ac-3
Language : English
Service kind : Complete Main
Default : Yes
Forced : No

Text #1
ID : 3
Format : UTF-8
Codec ID : S_TEXT/UTF8
Codec ID/Info : UTF-8 Plain Text
Duration : 43 min 58 s
Bit rate : 80 b/s
Count of elements : 737
Stream size : 25.8 KiB (0%)
Language : Danish
Default : No
Forced : No

Text #2
ID : 4
Format : UTF-8
Codec ID : S_TEXT/UTF8
Codec ID/Info : UTF-8 Plain Text
Duration : 43 min 58 s
Bit rate : 77 b/s
Count of elements : 686
Stream size : 25.0 KiB (0%)
Language : Finnish
Default : No
Forced : No

Text #3
ID : 5
Format : UTF-8
Codec ID : S_TEXT/UTF8
Codec ID/Info : UTF-8 Plain Text
Duration : 43 min 58 s
Bit rate : 78 b/s
Count of elements : 772
Stream size : 25.3 KiB (0%)
Language : Norwegian
Default : No
Forced : No

Text #4
ID : 6
Format : UTF-8
Codec ID : S_TEXT/UTF8
Codec ID/Info : UTF-8 Plain Text
Duration : 43 min 58 s
Bit rate : 80 b/s
Count of elements : 728
Stream size : 25.9 KiB (0%)
Language : Swedish
Default : No
Forced : No





Family Law S02E08


Family Law S02E08


Family Law S02E08


Family Law S02E08


Family Law S02E08

All episodes