Grey's Anatomy S05E11

Posted By: Tavaz
Grey's Anatomy S05E11

Grey's Anatomy S05E11
MKV | 1920x1080 | Italian / English | H264 @ 9488 kbps | AC-3 @ 384 kbps | 42 min 11 s | 3.02 GiB
Genre: Drama

Follows the personal and professional lives of a group of doctors at Seattle’s Grey Sloan Memorial Hospital.

Greys.Anatomy.15x11.Chi.Vince.Prende.Tutto.ITA-ENG.1080p.WEBMux.DD5.1.x264-NovaRip.mkv (3.0 GB)



General
Unique ID : 89926305673625007164368649864645968367 (0x43A72D2E599BF100FA9AFFAFD02801EF)
Complete name : ./Greys.Anatomy.15x11.Chi.Vince.Prende.Tutto.ITA-ENG.1080p.WEBMux.DD5.1.x264-NovaRip.mkv
Format : Matroska
Format version : Version 2
File size : 3.02 GiB
Duration : 42 min 11 s
Overall bit rate mode : Constant
Overall bit rate : 10.3 Mb/s
Encoded date : UTC 2019-03-16 06:37:00
Writing application : mkvmerge v8.5.2 ('Crosses') 64bit
Writing library : libebml v1.3.3 + libmatroska v1.4.4

Video
ID : 1
Format : AVC
Format/Info : Advanced Video Codec
Format profile : High@L4
Format settings : CABAC / 4 Ref Frames
Format settings, CABAC : Yes
Format settings, RefFrames : 4 frames
Codec ID : V_MPEG4/ISO/AVC
Duration : 42 min 11 s
Bit rate mode : Constant
Bit rate : 9 489 kb/s
Nominal bit rate : 10 000 kb/s
Width : 1 920 pixels
Height : 1 080 pixels
Display aspect ratio : 16:9
Frame rate mode : Constant
Frame rate : 25.000 FPS
Original frame rate : 23.976 (24000/1001) FPS
Color space : YUV
Chroma subsampling : 4:2:0
Bit depth : 8 bits
Scan type : Progressive
Bits/(Pixel*Frame) : 0.183
Stream size : 2.80 GiB (92%)
Language : English
Default : Yes
Forced : Yes
Color range : Limited
Color primaries : BT.709
Transfer characteristics : BT.709
Matrix coefficients : BT.709

Audio #1
ID : 2
Format : AC-3
Format/Info : Audio Coding 3
Format settings, Endianness : Big
Codec ID : A_AC3
Duration : 42 min 11 s
Bit rate mode : Constant
Bit rate : 384 kb/s
Channel(s) : 6 channels
Channel positions : Front: L C R, Side: L R, LFE
Sampling rate : 48.0 kHz
Frame rate : 31.250 FPS (1536 SPF)
Bit depth : 16 bits
Compression mode : Lossy
Stream size : 116 MiB (4%)
Title : ITA
Language : Italian
Service kind : Complete Main
Default : Yes
Forced : Yes

Audio #2
ID : 3
Format : AC-3
Format/Info : Audio Coding 3
Format settings, Endianness : Big
Codec ID : A_AC3
Duration : 42 min 11 s
Bit rate mode : Constant
Bit rate : 384 kb/s
Channel(s) : 6 channels
Channel positions : Front: L C R, Side: L R, LFE
Sampling rate : 48.0 kHz
Frame rate : 31.250 FPS (1536 SPF)
Bit depth : 16 bits
Compression mode : Lossy
Stream size : 116 MiB (4%)
Title : ENG
Language : English
Service kind : Complete Main
Default : No
Forced : No





Grey's Anatomy S05E11


Grey's Anatomy S05E11


Grey's Anatomy S05E11


Grey's Anatomy S05E11


Grey's Anatomy S05E11

All episodes