Index
# A B C D E F G H I J K L M N O P Q R S T U V W Y Z
Tags
Language
Tags

Featured TV Shows


Harrow S02E01

Posted By:
720p (HD) / WEBRip IMDb
Harrow S02E01

Harrow S02E01
WEBRip | MKV | 1024x576 | English | H264 @ 974 kbps | AAC @ 128 kbps | 51 min 59 s | 411 MiB
Genre: Drama


When a dark secret from this past threatens to be exposed, unorthodox and brilliant medical examiner, Doctor Daniel Harrow, must use all his forensic skills to keep it buried forever.

923ea3c983374a2f9875da70c239609c.mkv (410.7 MB)



General
Unique ID : 135247065047969202377982493385418441236 (0x65BFA322987A5816BAE00C6FBD8D8214)
Complete name : ./923ea3c983374a2f9875da70c239609c.mkv
Format : Matroska
Format version : Version 4 / Version 2
File size : 411 MiB
Duration : 51 min 59 s
Overall bit rate : 1 105 kb/s
Encoded date : UTC 2019-05-13 03:35:28
Writing application : mkvmerge v19.0.0 ('Brave Captain') 64-bit
Writing library : libebml v1.3.5 + libmatroska v1.4.8

Video
ID : 1
Format : AVC
Format/Info : Advanced Video Codec
Format profile : High@L4
Format settings : CABAC / 4 Ref Frames
Format settings, CABAC : Yes
Format settings, RefFrames : 4 frames
Codec ID : V_MPEG4/ISO/AVC
Duration : 51 min 59 s
Bit rate : 974 kb/s
Width : 1 024 pixels
Height : 576 pixels
Display aspect ratio : 16:9
Frame rate mode : Constant
Frame rate : 25.000 FPS
Color space : YUV
Chroma subsampling : 4:2:0
Bit depth : 8 bits
Scan type : Progressive
Bits/(Pixel*Frame) : 0.066
Stream size : 362 MiB (88%)
Writing library : x264 core 157
Encoding settings : cabac=1 / ref=3 / deblock=1:0:0 / analyse=0x3:0x113 / me=hex / subme=7 / psy=1 / psy_rd=1.00:0.00 / mixed_ref=1 / me_range=16 / chroma_me=1 / trellis=1 / 8x8dct=1 / cqm=0 / deadzone=21,11 / fast_pskip=1 / chroma_qp_offset=-2 / threads=18 / lookahead_threads=3 / sliced_threads=0 / nr=0 / decimate=1 / interlaced=0 / bluray_compat=0 / constrained_intra=0 / bframes=3 / b_pyramid=2 / b_adapt=1 / b_bias=0 / direct=1 / weightb=1 / open_gop=0 / weightp=2 / keyint=250 / keyint_min=25 / scenecut=40 / intra_refresh=0 / rc_lookahead=40 / rc=crf / mbtree=1 / crf=22.0 / qcomp=0.60 / qpmin=0 / qpmax=69 / qpstep=4 / vbv_maxrate=1404 / vbv_bufsize=3000 / crf_max=0.0 / nal_hrd=none / filler=0 / ip_ratio=1.40 / aq=1:1.00
Default : Yes
Forced : No

Audio
ID : 2
Format : AAC
Format/Info : Advanced Audio Codec
Format profile : LC
Codec ID : A_AAC-2
Duration : 51 min 59 s
Bit rate : 128 kb/s
Channel(s) : 2 channels
Channel positions : Front: L R
Sampling rate : 44.1 kHz
Frame rate : 43.066 FPS (1024 SPF)
Compression mode : Lossy
Delay relative to video : -80 ms
Stream size : 47.6 MiB (12%)
Default : Yes
Forced : No





Harrow S02E01


Harrow S02E01


Harrow S02E01


Harrow S02E01


Harrow S02E01

All episodes