Featured TV Shows


History 101 S01E02

Posted By: MegoNecia
720p (HD) / WEBRip IMDb
History 101 S01E02

History 101 S01E02
WEBRip | MKV | 1280x720 | English | H264 @ 4420 kbps | AAC @ 127 kbps | 22 min 30 s | 715 MiB
Subtitles: ภาษาไทย, Hrvatski, Français, tiếng Việt, Español, Magyar, 日本語, עברית, 한국어, Русский, Ελληνικά, Nederlands, Dansk, Bahasa Indonesia, 中文, Suomi, Polski, Türkçe, English, Română, العربية, Deutsch, Svenska, Italiano, Português, Čeština
Genre: Documentary


Infographics and archival footage deliver bite-size history lessons on scientific breakthroughs, social movements and world-changing discoveries.

80a35607a053be954bec89362c524d3e.mkv (714.6 MB)



General
Unique ID : 231072604495580513649190003412698265338 (0xADD6F6FF443DC927FAA72523B721F6FA)
Complete name : ./80a35607a053be954bec89362c524d3e.mkv
Format : Matroska
Format version : Version 4 / Version 2
File size : 715 MiB
Duration : 22 min 30 s
Overall bit rate mode : Variable
Overall bit rate : 4 439 kb/s
Encoded date : UTC 2020-05-22 20:07:06
Writing application : mkvmerge v45.0.0 ('Heaven in Pennies') 64-bit
Writing library : libebml v1.3.10 + libmatroska v1.5.2

Video
ID : 1
Format : AVC
Format/Info : Advanced Video Codec
Format profile : Main@L3.1
Format settings : CABAC / 3 Ref Frames
Format settings, CABAC : Yes
Format settings, RefFrames : 3 frames
Codec ID : V_MPEG4/ISO/AVC
Duration : 22 min 30 s
Bit rate mode : Variable
Bit rate : 4 420 kb/s
Maximum bit rate : 6 630 kb/s
Width : 1 280 pixels
Height : 720 pixels
Display aspect ratio : 16:9
Frame rate mode : Constant
Frame rate : 25.000 FPS
Color space : YUV
Chroma subsampling : 4:2:0
Bit depth : 8 bits
Scan type : Progressive
Bits/(Pixel*Frame) : 0.192
Stream size : 693 MiB (97%)
Writing library : x264 core 148 r2717 0d2410d
Encoding settings : cabac=1 / ref=3 / deblock=1:0:0 / analyse=0x1:0x111 / me=umh / subme=10 / psy=1 / psy_rd=1.00:0.00 / mixed_ref=1 / me_range=24 / chroma_me=1 / trellis=2 / 8x8dct=0 / cqm=0 / deadzone=21,11 / fast_pskip=1 / chroma_qp_offset=-2 / threads=6 / lookahead_threads=1 / sliced_threads=0 / nr=0 / decimate=1 / interlaced=0 / bluray_compat=0 / stitchable=1 / constrained_intra=0 / bframes=2 / b_pyramid=0 / b_adapt=2 / b_bias=0 / direct=3 / weightb=1 / open_gop=0 / weightp=2 / keyint=250 / keyint_min=25 / scenecut=0 / intra_refresh=0 / rc_lookahead=50 / rc=2pass / mbtree=1 / bitrate=4420 / ratetol=1.0 / qcomp=0.50 / qpmin=6 / qpmax=51 / qpstep=4 / cplxblur=20.0 / qblur=0.5 / vbv_maxrate=6630 / vbv_bufsize=8840 / nal_hrd=vbr / filler=0 / ip_ratio=1.40 / aq=1:1.00
Default : Yes
Forced : No

Audio
ID : 2
Format : AAC
Format/Info : Advanced Audio Codec
Format profile : HE-AAC / LC
Format settings : Explicit
Codec ID : A_AAC-2
Duration : 22 min 30 s
Bit rate : 128 kb/s
Channel(s) : 2 channels
Channel positions : Front: L R
Sampling rate : 48.0 kHz / 24.0 kHz
Frame rate : 23.438 FPS (1024 SPF)
Compression mode : Lossy
Stream size : 20.6 MiB (3%)
Title : British English
Language : English
Default : No
Forced : No

Text #1
ID : 3
Format : UTF-8
Codec ID : S_TEXT/UTF8
Codec ID/Info : UTF-8 Plain Text
Duration : 17 min 40 s
Bit rate : 8 b/s
Count of elements : 20
Stream size : 1.08 KiB (0%)
Title : English [Forced]
Language : English
Default : No
Forced : Yes

Text #2
ID : 4
Format : UTF-8
Codec ID : S_TEXT/UTF8
Codec ID/Info : UTF-8 Plain Text
Duration : 21 min 23 s
Bit rate : 121 b/s
Count of elements : 332
Stream size : 19.0 KiB (0%)
Title : English [Full]
Language : English
Default : No
Forced : No

Text #3
ID : 5
Format : UTF-8
Codec ID : S_TEXT/UTF8
Codec ID/Info : UTF-8 Plain Text
Duration : 21 min 23 s
Bit rate : 121 b/s
Count of elements : 332
Stream size : 19.0 KiB (0%)
Title : British English [Full]
Language : English
Default : No
Forced : No

Text #4
ID : 6
Format : UTF-8
Codec ID : S_TEXT/UTF8
Codec ID/Info : UTF-8 Plain Text
Duration : 21 min 47 s
Bit rate : 111 b/s
Count of elements : 356
Stream size : 17.7 KiB (0%)
Title : Castilian [Full]
Language : Spanish
Default : No
Forced : No

Text #5
ID : 7
Format : UTF-8
Codec ID : S_TEXT/UTF8
Codec ID/Info : UTF-8 Plain Text
Duration : 21 min 46 s
Bit rate : 114 b/s
Count of elements : 351
Stream size : 18.3 KiB (0%)
Title : Spanish [Full]
Language : Spanish
Default : No
Forced : No

Text #6
ID : 8
Format : UTF-8
Codec ID : S_TEXT/UTF8
Codec ID/Info : UTF-8 Plain Text
Duration : 21 min 46 s
Bit rate : 120 b/s
Count of elements : 349
Stream size : 19.2 KiB (0%)
Title : French [Full]
Language : French
Default : No
Forced : No

Text #7
ID : 9
Format : UTF-8
Codec ID : S_TEXT/UTF8
Codec ID/Info : UTF-8 Plain Text
Duration : 21 min 48 s
Bit rate : 119 b/s
Count of elements : 352
Stream size : 19.1 KiB (0%)
Title : German [Full]
Language : German
Default : No
Forced : No

Text #8
ID : 10
Format : UTF-8
Codec ID : S_TEXT/UTF8
Codec ID/Info : UTF-8 Plain Text
Duration : 21 min 46 s
Bit rate : 111 b/s
Count of elements : 347
Stream size : 17.8 KiB (0%)
Title : Italian [Full]
Language : Italian
Default : No
Forced : No

Text #9
ID : 11
Format : UTF-8
Codec ID : S_TEXT/UTF8
Codec ID/Info : UTF-8 Plain Text
Duration : 21 min 45 s
Bit rate : 122 b/s
Count of elements : 366
Stream size : 19.5 KiB (0%)
Title : Portuguese [Full]
Language : Portuguese
Default : No
Forced : No

Text #10
ID : 12
Format : UTF-8
Codec ID : S_TEXT/UTF8
Codec ID/Info : UTF-8 Plain Text
Duration : 21 min 46 s
Bit rate : 118 b/s
Count of elements : 350
Stream size : 18.8 KiB (0%)
Title : Brazilian Portuguese [Full]
Language : Portuguese
Default : No
Forced : No

Text #11
ID : 13
Format : UTF-8
Codec ID : S_TEXT/UTF8
Codec ID/Info : UTF-8 Plain Text
Duration : 21 min 46 s
Bit rate : 106 b/s
Count of elements : 338
Stream size : 16.9 KiB (0%)
Title : Polish [Full]
Language : Polish
Default : No
Forced : No

Text #12
ID : 14
Format : UTF-8
Codec ID : S_TEXT/UTF8
Codec ID/Info : UTF-8 Plain Text
Duration : 21 min 46 s
Bit rate : 119 b/s
Count of elements : 342
Stream size : 19.1 KiB (0%)
Title : Turkish [Full]
Language : Turkish
Default : No
Forced : No

Text #13
ID : 15
Format : UTF-8
Codec ID : S_TEXT/UTF8
Codec ID/Info : UTF-8 Plain Text
Duration : 21 min 46 s
Bit rate : 113 b/s
Count of elements : 299
Stream size : 18.1 KiB (0%)
Title : Swedish [Full]
Language : Swedish
Default : No
Forced : No

Text #14
ID : 16
Format : UTF-8
Codec ID : S_TEXT/UTF8
Codec ID/Info : UTF-8 Plain Text
Duration : 21 min 46 s
Bit rate : 105 b/s
Count of elements : 286
Stream size : 16.9 KiB (0%)
Title : Danish [Full]
Language : Danish
Default : No
Forced : No

Text #15
ID : 17
Format : UTF-8
Codec ID : S_TEXT/UTF8
Codec ID/Info : UTF-8 Plain Text
Duration : 21 min 46 s
Bit rate : 112 b/s
Count of elements : 285
Stream size : 17.9 KiB (0%)
Title : Finnish [Full]
Language : Finnish
Default : No
Forced : No

Text #16
ID : 18
Format : UTF-8
Codec ID : S_TEXT/UTF8
Codec ID/Info : UTF-8 Plain Text
Duration : 21 min 46 s
Bit rate : 94 b/s
Count of elements : 314
Stream size : 15.1 KiB (0%)
Title : Dutch [Full]
Language : Dutch
Default : No
Forced : No

Text #17
ID : 19
Format : UTF-8
Codec ID : S_TEXT/UTF8
Codec ID/Info : UTF-8 Plain Text
Duration : 21 min 46 s
Bit rate : 100 b/s
Count of elements : 268
Stream size : 16.1 KiB (0%)
Title : Norwegian [Full]
Language : Norwegian
Default : No
Forced : No

Text #18
ID : 20
Format : UTF-8
Codec ID : S_TEXT/UTF8
Codec ID/Info : UTF-8 Plain Text
Duration : 21 min 47 s
Bit rate : 189 b/s
Count of elements : 363
Stream size : 30.3 KiB (0%)
Title : Russian [Full]
Language : Russian
Default : No
Forced : No

Text #19
ID : 21
Format : UTF-8
Codec ID : S_TEXT/UTF8
Codec ID/Info : UTF-8 Plain Text
Duration : 21 min 46 s
Bit rate : 127 b/s
Count of elements : 352
Stream size : 20.4 KiB (0%)
Title : Hungarian [Full]
Language : Hungarian
Default : No
Forced : No

Text #20
ID : 22
Format : UTF-8
Codec ID : S_TEXT/UTF8
Codec ID/Info : UTF-8 Plain Text
Duration : 21 min 46 s
Bit rate : 104 b/s
Count of elements : 331
Stream size : 16.7 KiB (0%)
Title : Croatian [Full]
Language : Croatian
Default : No
Forced : No

Text #21
ID : 23
Format : UTF-8
Codec ID : S_TEXT/UTF8
Codec ID/Info : UTF-8 Plain Text
Duration : 21 min 46 s
Bit rate : 199 b/s
Count of elements : 364
Stream size : 31.8 KiB (0%)
Title : Greek [Full]
Language : Greek
Default : No
Forced : No

Text #22
ID : 24
Format : UTF-8
Codec ID : S_TEXT/UTF8
Codec ID/Info : UTF-8 Plain Text
Duration : 21 min 17 s
Bit rate : 156 b/s
Count of elements : 337
Stream size : 24.5 KiB (0%)
Title : Hebrew [Full]
Language : Hebrew
Default : No
Forced : No

Text #23
ID : 25
Format : UTF-8
Codec ID : S_TEXT/UTF8
Codec ID/Info : UTF-8 Plain Text
Duration : 21 min 18 s
Bit rate : 181 b/s
Count of elements : 348
Stream size : 28.4 KiB (0%)
Title : Arabic [Full]
Language : Arabic
Default : No
Forced : No

Text #24
ID : 26
Format : UTF-8
Codec ID : S_TEXT/UTF8
Codec ID/Info : UTF-8 Plain Text
Duration : 21 min 17 s
Bit rate : 127 b/s
Count of elements : 343
Stream size : 19.9 KiB (0%)
Title : Romanian [Full]
Language : Romanian
Default : No
Forced : No

Text #25
ID : 27
Format : UTF-8
Codec ID : S_TEXT/UTF8
Codec ID/Info : UTF-8 Plain Text
Duration : 21 min 46 s
Bit rate : 117 b/s
Count of elements : 347
Stream size : 18.7 KiB (0%)
Title : Czech [Full]
Language : Czech
Default : No
Forced : No

Text #26
ID : 28
Format : UTF-8
Codec ID : S_TEXT/UTF8
Codec ID/Info : UTF-8 Plain Text
Duration : 21 min 46 s
Bit rate : 118 b/s
Count of elements : 335
Stream size : 18.9 KiB (0%)
Title : Indonesian [Full]
Language : Indonesian
Default : No
Forced : No

Text #27
ID : 29
Format : UTF-8
Codec ID : S_TEXT/UTF8
Codec ID/Info : UTF-8 Plain Text
Duration : 21 min 17 s
Bit rate : 156 b/s
Count of elements : 354
Stream size : 24.5 KiB (0%)
Title : Vietnamese [Full]
Language : Vietnamese
Default : No
Forced : No

Text #28
ID : 30
Format : UTF-8
Codec ID : S_TEXT/UTF8
Codec ID/Info : UTF-8 Plain Text
Duration : 21 min 17 s
Bit rate : 272 b/s
Count of elements : 363
Stream size : 42.5 KiB (0%)
Title : Thai [Full]
Language : Thai
Default : No
Forced : No

Text #29
ID : 31
Format : UTF-8
Codec ID : S_TEXT/UTF8
Codec ID/Info : UTF-8 Plain Text
Duration : 21 min 17 s
Bit rate : 131 b/s
Count of elements : 372
Stream size : 20.6 KiB (0%)
Title : Korean [Full]
Language : Korean
Default : No
Forced : No

Text #30
ID : 32
Format : UTF-8
Codec ID : S_TEXT/UTF8
Codec ID/Info : UTF-8 Plain Text
Duration : 21 min 17 s
Bit rate : 99 b/s
Count of elements : 365
Stream size : 15.5 KiB (0%)
Title : Chinese (Simplified) [Full]
Language : Chinese
Default : No
Forced : No

Text #31
ID : 33
Format : UTF-8
Codec ID : S_TEXT/UTF8
Codec ID/Info : UTF-8 Plain Text
Duration : 21 min 17 s
Bit rate : 112 b/s
Count of elements : 363
Stream size : 17.5 KiB (0%)
Title : Chinese (Traditional) [Full]
Language : Chinese
Default : No
Forced : No

Text #32
ID : 34
Format : UTF-8
Codec ID : S_TEXT/UTF8
Codec ID/Info : UTF-8 Plain Text
Duration : 21 min 46 s
Bit rate : 127 b/s
Count of elements : 436
Stream size : 20.4 KiB (0%)
Title : Japanese [Full]
Language : Japanese
Default : No
Forced : No





History 101 S01E02


History 101 S01E02


History 101 S01E02


History 101 S01E02


History 101 S01E02

All episodes