Featured TV Shows


Mayans M.C. S01E10

Posted By: Tavaz
Mayans M.C. S01E10

Mayans M.C. S01E10
MOV | 1920x1080 | English / English | H264 @ 2170 kbps | AC-3 @ 320 kbps | 1 h 8 min | 1.27 GiB
Subtitles: English
Genre: Crime, Drama

Set in the aftermath of Jax Teller’s death, Ezekiel "EZ" Reyes is fresh out of prison and a prospect in the Mayans M.C. charter on the Cali/Mexi border. Now, EZ must carve out his new identity in a town where he was once the golden boy with the American Dream in his grasp.

Mayans M C S01E10 Cuervo - Tz'ikb'uul.mp4 (1008.0 MB)
Mayans M C S01E02 Escorpión - Dzec.mp4 (1.0 GB)
Mayans M C S01E05 Uch - Opossum.mp4 (1.0 GB)
Mayans M C S01E09 Serpiente - Chikchan.mp4 (1.2 GB)
Mayans M C S01E03 Búho - Muwan.mp4 (973.7 MB)
Mayans M C S01E06 Gato - Mis.mp4 (985.6 MB)
Mayans M C S01E04 Murcielago - Zotz.mp4 (1.0 GB)
Mayans M C S01E01 Perro - Oc.mp4 (1.3 GB)
Mayans M C S01E08 Rata - Ch'o.mp4 (1004.3 MB)
Mayans M C S01E07 Cucaracha - K'uruch.mp4 (1.0 GB)



General
Complete name : ./Mayans M C Season 1 (S01) 1080p 5.1 - 2.0 x264/Mayans M C S01E01 Perro - Oc.mp4
Format : MPEG-4
Format profile : Base Media / Version 2
Codec ID : mp42 (isom/iso2/avc1/mp41)
File size : 1.27 GiB
Duration : 1 h 8 min
Overall bit rate mode : Variable
Overall bit rate : 2 657 kb/s
Encoded date : UTC 2018-11-06 20:15:16
Tagged date : UTC 2018-11-06 20:15:16
Writing application : HandBrake 1.1.1 2018061800

Video
ID : 1
Format : AVC
Format/Info : Advanced Video Codec
Format profile : High@L4.1
Format settings : CABAC / 1 Ref Frames
Format settings, CABAC : Yes
Format settings, RefFrames : 1 frame
Format settings, GOP : N=1
Codec ID : avc1
Codec ID/Info : Advanced Video Coding
Duration : 1 h 8 min
Bit rate : 2 171 kb/s
Width : 1 920 pixels
Height : 1 080 pixels
Display aspect ratio : 16:9
Frame rate mode : Variable
Frame rate : 23.976 (24000/1001) FPS
Minimum frame rate : 23.974 FPS
Maximum frame rate : 23.981 FPS
Color space : YUV
Chroma subsampling : 4:2:0
Bit depth : 8 bits
Scan type : Progressive
Bits/(Pixel*Frame) : 0.044
Stream size : 1.04 GiB (82%)
Writing library : x264 core 155 r2901 7d0ff22
Encoding settings : cabac=1 / ref=1 / deblock=1:4:4 / analyse=0x3:0x133 / me=umh / subme=11 / psy=0 / mixed_ref=0 / me_range=32 / chroma_me=1 / trellis=2 / 8x8dct=1 / cqm=0 / deadzone=21,11 / fast_pskip=1 / chroma_qp_offset=-4 / threads=48 / lookahead_threads=4 / sliced_threads=0 / nr=0 / decimate=1 / interlaced=0 / bluray_compat=0 / constrained_intra=0 / bframes=0 / weightp=2 / keyint=240 / keyint_min=24 / scenecut=100 / intra_refresh=0 / rc_lookahead=32 / rc=crf / mbtree=1 / crf=25.0 / qcomp=0.60 / qpmin=0 / qpmax=69 / qpstep=4 / ip_ratio=1.20 / aq=3:1.20
Encoded date : UTC 2018-11-06 20:15:16
Tagged date : UTC 2018-11-06 20:15:16
Color range : Limited
Color primaries : BT.709
Transfer characteristics : BT.709
Matrix coefficients : BT.709

Audio #1
ID : 2
Format : AC-3
Format/Info : Audio Coding 3
Format settings, Endianness : Big
Codec ID : ac-3
Duration : 1 h 8 min
Bit rate mode : Constant
Bit rate : 320 kb/s
Channel(s) : 6 channels
Channel positions : Front: L C R, Side: L R, LFE
Sampling rate : 48.0 kHz
Frame rate : 31.250 FPS (1536 SPF)
Bit depth : 16 bits
Compression mode : Lossy
Stream size : 156 MiB (12%)
Title : Surround / Surround
Language : English
Service kind : Complete Main
Default : Yes
Alternate group : 1
Encoded date : UTC 2018-11-06 20:15:16
Tagged date : UTC 2018-11-06 20:15:16
Fallback To : 3

Audio #2
ID : 3
Format : AAC
Format/Info : Advanced Audio Codec
Format profile : LC
Codec ID : mp4a-40-2
Duration : 1 h 8 min
Bit rate mode : Variable
Bit rate : 160 kb/s
Channel(s) : 2 channels
Channel positions : Front: L R
Sampling rate : 48.0 kHz
Frame rate : 46.875 FPS (1024 SPF)
Compression mode : Lossy
Stream size : 78.1 MiB (6%)
Title : Stereo / Stereo
Language : English
Default : Inherited From: 2
Alternate group : 1
Encoded date : UTC 2018-11-06 20:15:16
Tagged date : UTC 2018-11-06 20:15:16
Fallback From : 2

Text #1
ID : 4
Format : Timed Text
Muxing mode : sbtl
Codec ID : tx3g
Duration : 1 h 7 min
Bit rate mode : Variable
Bit rate : 38 b/s
Stream size : 18.6 KiB (0%)
Language : English
Default : Yes
Forced : No
Alternate group : 3
Encoded date : UTC 2018-11-06 20:15:16
Tagged date : UTC 2018-11-06 20:15:16

Text #2
ID : 5
Format : Timed Text
Muxing mode : sbtl
Codec ID : tx3g
Duration : 1 h 8 min
Bit rate mode : Variable
Bit rate : 43 b/s
Stream size : 21.6 KiB (0%)
Language : English
Default : No
Forced : No
Alternate group : 3
Encoded date : UTC 2018-11-06 20:15:16
Tagged date : UTC 2018-11-06 20:15:16





Mayans M.C. S01E10


Mayans M.C. S01E10


Mayans M.C. S01E10


Mayans M.C. S01E10


Mayans M.C. S01E10

All episodes