Featured TV Shows


Manifest S01E12

Posted By: Tavaz
1080p (FullHD) / WEB-DL IMDb
Manifest S01E12

Manifest S01E12
WEB-DL | MKV | 1920x1080 | Italian / English | H264 @ 8155 kbps | AC-3 @ 192 kbps | 41 min 12 s | 2.51 GiB
Subtitles: English, Italian
Genre: Drama, Mystery


After landing from a turbulent but routine flight, the crew and passengers of Montego Air Flight 828 discover five years have passed in what seemed like a few hours. As their new realities become clear, a deeper mystery unfolds and some of the returned passengers soon realize they may be meant for something greater than they ever thought possible.

Manifest.1x12.Punto.Di.Fuga.ITA-ENG.1080p.WEBMux.x264-NovaRip.mkv (2.5 GB)



General
Unique ID : 297852874272210409099385917112350370926 (0xE0146080563EF17C61177A6725AF6C6E)
Complete name : ./Manifest.1x12.Punto.Di.Fuga.ITA-ENG.1080p.WEBMux.x264-NovaRip.mkv
Format : Matroska
Format version : Version 2
File size : 2.51 GiB
Duration : 41 min 12 s
Overall bit rate : 8 734 kb/s
Encoded date : UTC 2019-01-31 05:04:59
Writing application : mkvmerge v8.5.2 ('Crosses') 64bit
Writing library : libebml v1.3.3 + libmatroska v1.4.4

Video
ID : 1
Format : AVC
Format/Info : Advanced Video Codec
Format profile : High@L4
Format settings : CABAC / 4 Ref Frames
Format settings, CABAC : Yes
Format settings, RefFrames : 4 frames
Codec ID : V_MPEG4/ISO/AVC
Duration : 41 min 12 s
Bit rate mode : Constant
Bit rate : 8 156 kb/s
Nominal bit rate : 10 000 kb/s
Width : 1 920 pixels
Height : 1 080 pixels
Display aspect ratio : 16:9
Frame rate mode : Constant
Frame rate : 25.000 FPS
Original frame rate : 23.976 (24000/1001) FPS
Color space : YUV
Chroma subsampling : 4:2:0
Bit depth : 8 bits
Scan type : Progressive
Bits/(Pixel*Frame) : 0.157
Stream size : 2.35 GiB (93%)
Language : English
Default : Yes
Forced : Yes
Color range : Limited
Color primaries : BT.709
Transfer characteristics : BT.709
Matrix coefficients : BT.709

Audio #1
ID : 2
Format : AC-3
Format/Info : Audio Coding 3
Format settings, Endianness : Big
Codec ID : A_AC3
Duration : 41 min 12 s
Bit rate mode : Constant
Bit rate : 192 kb/s
Channel(s) : 2 channels
Channel positions : Front: L R
Sampling rate : 48.0 kHz
Frame rate : 31.250 FPS (1536 SPF)
Bit depth : 16 bits
Compression mode : Lossy
Stream size : 56.6 MiB (2%)
Title : ITA
Language : Italian
Service kind : Complete Main
Default : Yes
Forced : Yes

Audio #2
ID : 3
Format : AC-3
Format/Info : Audio Coding 3
Format settings, Endianness : Big
Codec ID : A_AC3
Duration : 41 min 12 s
Bit rate mode : Constant
Bit rate : 384 kb/s
Channel(s) : 6 channels
Channel positions : Front: L C R, Side: L R, LFE
Sampling rate : 48.0 kHz
Frame rate : 31.250 FPS (1536 SPF)
Bit depth : 16 bits
Compression mode : Lossy
Stream size : 113 MiB (4%)
Title : ENG
Language : English
Service kind : Complete Main
Default : No
Forced : No

Text #1
ID : 4
Format : UTF-8
Codec ID : S_TEXT/UTF8
Codec ID/Info : UTF-8 Plain Text
Duration : 15 min 40 s
Bit rate : 1 b/s
Count of elements : 3
Stream size : 126 Bytes (0%)
Title : ITA - Forced
Language : Italian
Default : Yes
Forced : Yes

Text #2
ID : 5
Format : UTF-8
Codec ID : S_TEXT/UTF8
Codec ID/Info : UTF-8 Plain Text
Duration : 40 min 27 s
Bit rate : 79 b/s
Count of elements : 702
Stream size : 23.5 KiB (0%)
Title : ITA
Language : Italian
Default : No
Forced : No

Text #3
ID : 6
Format : UTF-8
Codec ID : S_TEXT/UTF8
Codec ID/Info : UTF-8 Plain Text
Duration : 40 min 25 s
Bit rate : 75 b/s
Count of elements : 764
Stream size : 22.3 KiB (0%)
Title : ENG
Language : English
Default : No
Forced : No





Manifest S01E12


Manifest S01E12


Manifest S01E12


Manifest S01E12


Manifest S01E12

All episodes