Featured TV Shows


Modern Family S01E16

Posted By: Tavaz
1080p (FullHD) / WEB-DL IMDb
Modern Family S01E16

Modern Family S01E16
WEB-DL | MKV | 1920x1080 | English / Italiano | H264 @ 10000 kbps | AC-3 @ 384 kbps | 20 min 39 s | 1.59 GiB
Genre: Comedy


The Pritchett-Dunphy-Tucker clan is a wonderfully large and blended family. They give us an honest and often hilarious look into the sometimes warm, sometimes twisted, embrace of the modern family.

Modern.Family.11x16.Casa.Dolce.Casa.ITA-ENG.1080p.WEBMux.DD5.1.x264-NovaRip.mkv (1.6 GB)



General
Unique ID : 36668393574706120036635776541945255151 (0x1B9613625F9CE99BB173BA43D23C54EF)
Complete name : ./Modern.Family.11x16.Casa.Dolce.Casa.ITA-ENG.1080p.WEBMux.DD5.1.x264-NovaRip.mkv
Format : Matroska
Format version : Version 2
File size : 1.59 GiB
Duration : 20 min 39 s
Overall bit rate mode : Constant
Overall bit rate : 11.0 Mb/s
Encoded date : UTC 2020-05-23 05:05:03
Writing application : mkvmerge v43.0.0 ('The Quartermaster') 64-bit
Writing library : libebml v1.3.10 + libmatroska v1.5.2

Video
ID : 1
Format : AVC
Format/Info : Advanced Video Codec
Format profile : High@L4
Format settings : CABAC / 4 Ref Frames
Format settings, CABAC : Yes
Format settings, RefFrames : 4 frames
Codec ID : V_MPEG4/ISO/AVC
Duration : 20 min 39 s
Bit rate mode : Constant
Bit rate : 10 000 kb/s
Width : 1 920 pixels
Height : 1 080 pixels
Display aspect ratio : 16:9
Frame rate mode : Constant
Frame rate : 25.000 FPS
Color space : YUV
Chroma subsampling : 4:2:0
Bit depth : 8 bits
Scan type : Progressive
Bits/(Pixel*Frame) : 0.193
Stream size : 1.48 GiB (93%)
Language : English
Default : Yes
Forced : Yes
Color range : Limited
Color primaries : BT.709
Transfer characteristics : BT.709
Matrix coefficients : BT.709

Audio #1
ID : 2
Format : AC-3
Format/Info : Audio Coding 3
Format settings, Endianness : Big
Codec ID : A_AC3
Duration : 20 min 39 s
Bit rate mode : Constant
Bit rate : 384 kb/s
Channel(s) : 6 channels
Channel positions : Front: L C R, Side: L R, LFE
Sampling rate : 48.0 kHz
Frame rate : 31.250 FPS (1536 SPF)
Bit depth : 16 bits
Compression mode : Lossy
Stream size : 56.7 MiB (3%)
Title : ITA
Language : Italian
Service kind : Complete Main
Default : Yes
Forced : Yes

Audio #2
ID : 3
Format : AC-3
Format/Info : Audio Coding 3
Format settings, Endianness : Big
Codec ID : A_AC3
Duration : 20 min 39 s
Bit rate mode : Constant
Bit rate : 384 kb/s
Channel(s) : 6 channels
Channel positions : Front: L C R, Side: L R, LFE
Sampling rate : 48.0 kHz
Frame rate : 31.250 FPS (1536 SPF)
Bit depth : 16 bits
Compression mode : Lossy
Stream size : 56.7 MiB (3%)
Title : ENG
Language : English
Service kind : Complete Main
Default : No
Forced : No





Modern Family S01E16


Modern Family S01E16


Modern Family S01E16


Modern Family S01E16


Modern Family S01E16

All episodes