Featured TV Shows


Alex, Inc. S01E05

Posted By: Tavaz
Alex, Inc. S01E05

Alex, Inc. S01E05
MKV | 640x480 | H264 @ 585 kbps | MPEG Audio @ 128 kbps | 21 min 3 s | 110 MiB
Genre: Comedy

A brilliant radio journalist, husband, and father of two is about to do something crazy — quit his job and start his own company. He quickly discovers it’s going to be a lot harder than he thought.

Alex.Inc.S01E05.480p.x264-mSD.mkv (109.7 MB)



General
Unique ID : 334746543978556084466849735186850729104 (0xFBD5D6DB3D8F0A2AA6D4E843F9EB4C90)
Complete name : ./Alex.Inc.S01E05.480p.x264-mSD.mkv
Format : Matroska
Format version : Version 4 / Version 2
File size : 110 MiB
Duration : 21 min 3 s
Overall bit rate : 728 kb/s
Writing application : Lavf57.79.100
Writing library : Lavf57.79.100
ErrorDetectionType : Per level 1

Video
ID : 1
Format : AVC
Format/Info : Advanced Video Codec
Format profile : High@L3
Format settings : CABAC / 4 Ref Frames
Format settings, CABAC : Yes
Format settings, RefFrames : 4 frames
Codec ID : V_MPEG4/ISO/AVC
Duration : 21 min 3 s
Bit rate : 585 kb/s
Width : 640 pixels
Height : 480 pixels
Display aspect ratio : 16:9
Frame rate mode : Constant
Frame rate : 23.976 (24000/1001) FPS
Color space : YUV
Chroma subsampling : 4:2:0
Bit depth : 8 bits
Scan type : Progressive
Bits/(Pixel*Frame) : 0.079
Stream size : 88.2 MiB (80%)
Writing library : x264 core 152 r2851 ba24899
Encoding settings : cabac=1 / ref=1 / deblock=1:0:0 / analyse=0x3:0x113 / me=hex / subme=2 / psy=1 / psy_rd=1.00:0.00 / mixed_ref=0 / me_range=16 / chroma_me=1 / trellis=0 / 8x8dct=1 / cqm=0 / deadzone=21,11 / fast_pskip=1 / chroma_qp_offset=0 / threads=12 / lookahead_threads=3 / sliced_threads=0 / nr=0 / decimate=1 / interlaced=0 / bluray_compat=0 / constrained_intra=0 / bframes=3 / b_pyramid=2 / b_adapt=1 / b_bias=0 / direct=1 / weightb=1 / open_gop=0 / weightp=1 / keyint=250 / keyint_min=23 / scenecut=40 / intra_refresh=0 / rc_lookahead=10 / rc=crf / mbtree=1 / crf=23.0 / qcomp=0.60 / qpmin=0 / qpmax=69 / qpstep=4 / ip_ratio=1.40 / aq=1:1.00
Default : Yes
Forced : No

Audio
ID : 2
Format : MPEG Audio
Format version : Version 1
Format profile : Layer 3
Format settings : Joint stereo / MS Stereo
Mode : Joint stereo
Mode extension : MS Stereo
Codec ID : A_MPEG/L3
Codec ID/Hint : MP3
Duration : 21 min 3 s
Bit rate mode : Constant
Bit rate : 128 kb/s
Channel(s) : 2 channels
Sampling rate : 48.0 kHz
Compression mode : Lossy
Stream size : 19.3 MiB (18%)
Writing library : Lavc57.104.100 libmp3lame
Default : Yes
Forced : No





Alex, Inc. S01E05


Alex, Inc. S01E05


Alex, Inc. S01E05


Alex, Inc. S01E05


Alex, Inc. S01E05

All episodes