Featured TV Shows


Genius S02E08

Posted By: Tavaz
Genius S02E08

Genius S02E08
MKV | 640x480 | English | H264 @ 242 kbps | MPEG Audio @ 128 kbps | 50 min 8 s | 135 MiB
Subtitles: English
Genre: Drama

Anthology series about famous geniuses with the first season charting how Albert Einstein unlocked the mysteries of the atom and the universe, and the second exploring the passionate nature and relentless creative drive of Pablo Picasso.

Genius.2017.S02E08.iNTERNAL.480p.x264-mSD.mkv (135.4 MB)



General
Unique ID : 272847686131028106923886317666018156484 (0xCD448D8AB354102942BC4CD930F65FC4)
Complete name : ./Genius.2017.S02E08.iNTERNAL.480p.x264-mSD.mkv
Format : Matroska
Format version : Version 4 / Version 2
File size : 135 MiB
Duration : 50 min 8 s
Overall bit rate : 378 kb/s
Writing application : Lavf57.79.100
Writing library : Lavf57.79.100
ErrorDetectionType : Per level 1

Video
ID : 1
Format : AVC
Format/Info : Advanced Video Codec
Format profile : High@L3
Format settings : CABAC / 4 Ref Frames
Format settings, CABAC : Yes
Format settings, RefFrames : 4 frames
Codec ID : V_MPEG4/ISO/AVC
Duration : 50 min 8 s
Bit rate : 242 kb/s
Width : 640 pixels
Height : 480 pixels
Display aspect ratio : 2.000
Frame rate mode : Constant
Frame rate : 29.970 (29970/1000) FPS
Color space : YUV
Chroma subsampling : 4:2:0
Bit depth : 8 bits
Scan type : Progressive
Bits/(Pixel*Frame) : 0.026
Stream size : 86.8 MiB (64%)
Writing library : x264 core 152 r2851 ba24899
Encoding settings : cabac=1 / ref=1 / deblock=1:0:0 / analyse=0x3:0x113 / me=hex / subme=2 / psy=1 / psy_rd=1.00:0.00 / mixed_ref=0 / me_range=16 / chroma_me=1 / trellis=0 / 8x8dct=1 / cqm=0 / deadzone=21,11 / fast_pskip=1 / chroma_qp_offset=0 / threads=12 / lookahead_threads=3 / sliced_threads=0 / nr=0 / decimate=1 / interlaced=0 / bluray_compat=0 / constrained_intra=0 / bframes=3 / b_pyramid=2 / b_adapt=1 / b_bias=0 / direct=1 / weightb=1 / open_gop=0 / weightp=1 / keyint=250 / keyint_min=25 / scenecut=40 / intra_refresh=0 / rc_lookahead=10 / rc=crf / mbtree=1 / crf=23.0 / qcomp=0.60 / qpmin=0 / qpmax=69 / qpstep=4 / ip_ratio=1.40 / aq=1:1.00
Language : English
Default : Yes
Forced : No
Statistics Tags Issue : mkvmerge v13.0.0 ('The Juggler') 64bit 2018-06-06 04:16:16 / Lavf57.79.100
FromStats_BitRate : 4835141
FromStats_Duration : 00:50:08.575000000
FromStats_FrameCount : 90617
FromStats_StreamSize : 1818339096

Audio
ID : 2
Format : MPEG Audio
Format version : Version 1
Format profile : Layer 3
Format settings : Joint stereo / MS Stereo
Mode : Joint stereo
Mode extension : MS Stereo
Codec ID : A_MPEG/L3
Codec ID/Hint : MP3
Duration : 50 min 8 s
Bit rate mode : Constant
Bit rate : 128 kb/s
Channel(s) : 2 channels
Sampling rate : 48.0 kHz
Compression mode : Lossy
Stream size : 45.9 MiB (34%)
Writing library : Lavc57.104.100 libmp3lame
Language : English
Default : Yes
Forced : No
Statistics Tags Issue : mkvmerge v13.0.0 ('The Juggler') 64bit 2018-06-06 04:16:16 / Lavf57.79.100
FromStats_BitRate : 126830
FromStats_Duration : 00:50:08.511000000
FromStats_FrameCount : 70513
FromStats_StreamSize : 47695963

Text
ID : 3
Format : ASS
Codec ID : S_TEXT/ASS
Codec ID/Info : Advanced Sub Station Alpha
Compression mode : Lossless
Writing library : Lavc57.104.100 ssa
Language : English
Default : No
Forced : No
Statistics Tags Issue : mkvmerge v13.0.0 ('The Juggler') 64bit 2018-06-06 04:16:16 / Lavf57.79.100
FromStats_BitRate : 97
FromStats_Duration : 00:50:03.336000000
FromStats_FrameCount : 765
FromStats_StreamSize : 36539





Genius S02E08


Genius S02E08


Genius S02E08


Genius S02E08


Genius S02E08

All episodes