Featured TV Shows


Safe S01E03

Posted By: Tavaz
720p (HD) / WEBRip IMDb
Safe S01E03

Safe S01E03
WEBRip | MKV | 1280x534 | English | H264 @ 1771 kbps | AC-3 @ 384 kbps | 47 min 8 s | 728 MiB
Subtitles: Turkish, Polish, Portuguese, Spanish, English
Genre: Crime, Drama

After his daughter goes missing, a widower begins uncovering the dark secrets of the people closest to him.

4f34d5c2c6734f879571f01251e3f488.mkv (727.7 MB)



General
Unique ID : 126715342093394739048609531703537731982 (0x5F547CB781C8B660A645C3557954898E)
Complete name : ./4f34d5c2c6734f879571f01251e3f488.mkv
Format : Matroska
Format version : Version 4 / Version 2
File size : 728 MiB
Duration : 47 min 8 s
Overall bit rate : 2 158 kb/s
Encoded date : UTC 2018-05-10 08:12:07
Writing application : mkvmerge v21.0.0 ('Tardigrades Will Inherit The Earth') 64-bit
Writing library : libebml v1.3.5 + libmatroska v1.4.8

Video
ID : 1
Format : AVC
Format/Info : Advanced Video Codec
Format profile : High@L4.1
Format settings : CABAC / 5 Ref Frames
Format settings, CABAC : Yes
Format settings, RefFrames : 5 frames
Codec ID : V_MPEG4/ISO/AVC
Duration : 47 min 8 s
Bit rate : 1 772 kb/s
Width : 1 280 pixels
Height : 534 pixels
Display aspect ratio : 2.40:1
Original display aspect ratio : 2.40:1
Frame rate mode : Constant
Frame rate : 25.000 FPS
Color space : YUV
Chroma subsampling : 4:2:0
Bit depth : 8 bits
Scan type : Progressive
Bits/(Pixel*Frame) : 0.104
Stream size : 597 MiB (82%)
Writing library : x264 core 155 r2901 7d0ff22
Encoding settings : cabac=1 / ref=5 / deblock=1:-3:-3 / analyse=0x3:0x113 / me=hex / subme=8 / psy=1 / psy_rd=1.00:0.15 / mixed_ref=1 / me_range=16 / chroma_me=1 / trellis=2 / 8x8dct=1 / cqm=0 / deadzone=21,11 / fast_pskip=0 / chroma_qp_offset=-2 / threads=17 / lookahead_threads=2 / sliced_threads=0 / nr=0 / decimate=1 / interlaced=0 / bluray_compat=0 / constrained_intra=0 / bframes=3 / b_pyramid=2 / b_adapt=1 / b_bias=0 / direct=3 / weightb=1 / open_gop=0 / weightp=2 / keyint=250 / keyint_min=25 / scenecut=40 / intra_refresh=0 / rc_lookahead=50 / rc=crf / mbtree=1 / crf=18.0 / qcomp=0.60 / qpmin=0 / qpmax=69 / qpstep=4 / ip_ratio=1.40 / aq=3:0.80
Language : English
Default : Yes
Forced : No
Color range : Limited
Matrix coefficients : BT.709

Audio
ID : 2
Format : AC-3
Format/Info : Audio Coding 3
Format settings, Endianness : Big
Codec ID : A_AC3
Duration : 47 min 8 s
Bit rate mode : Constant
Bit rate : 384 kb/s
Channel(s) : 6 channels
Channel positions : Front: L C R, Side: L R, LFE
Sampling rate : 48.0 kHz
Frame rate : 31.250 FPS (1536 SPF)
Bit depth : 16 bits
Compression mode : Lossy
Stream size : 129 MiB (18%)
Language : English
Service kind : Complete Main
Default : Yes
Forced : No

Text #1
ID : 3
Format : UTF-8
Codec ID : S_TEXT/UTF8
Codec ID/Info : UTF-8 Plain Text
Duration : 46 min 6 s
Bit rate : 55 b/s
Count of elements : 615
Stream size : 18.6 KiB (0%)
Language : English
Default : No
Forced : No

Text #2
ID : 4
Format : UTF-8
Codec ID : S_TEXT/UTF8
Codec ID/Info : UTF-8 Plain Text
Duration : 46 min 10 s
Bit rate : 48 b/s
Count of elements : 570
Stream size : 16.3 KiB (0%)
Title : European
Language : Spanish
Default : No
Forced : No

Text #3
ID : 5
Format : UTF-8
Codec ID : S_TEXT/UTF8
Codec ID/Info : UTF-8 Plain Text
Duration : 46 min 10 s
Bit rate : 44 b/s
Count of elements : 562
Stream size : 14.9 KiB (0%)
Language : Polish
Default : No
Forced : No

Text #4
ID : 6
Format : UTF-8
Codec ID : S_TEXT/UTF8
Codec ID/Info : UTF-8 Plain Text
Duration : 46 min 10 s
Bit rate : 52 b/s
Count of elements : 569
Stream size : 17.6 KiB (0%)
Language : Portuguese
Default : No
Forced : No

Text #5
ID : 7
Format : UTF-8
Codec ID : S_TEXT/UTF8
Codec ID/Info : UTF-8 Plain Text
Duration : 46 min 10 s
Bit rate : 48 b/s
Count of elements : 568
Stream size : 16.4 KiB (0%)
Language : Turkish
Default : No
Forced : No





Safe S01E03


Safe S01E03


Safe S01E03


Safe S01E03


Safe S01E03

All episodes