Featured TV Shows


Safe S01E07

Posted By: Tavaz
720p (HD) / WEBRip IMDb
Safe S01E07

Safe S01E07
WEBRip | MKV | 1280x534 | English | H264 @ 2092 kbps | AC-3 @ 384 kbps | 45 min 44 s | 811 MiB
Subtitles: Turkish, Polish, Portuguese, Spanish, English
Genre: Crime, Drama

After his daughter goes missing, a widower begins uncovering the dark secrets of the people closest to him.

8fdc559993614d30bec983f11786b656.mkv (811.0 MB)



General
Unique ID : 170723539971137800418304424757363279253 (0x807028648BF312088361A0A519C10595)
Complete name : ./8fdc559993614d30bec983f11786b656.mkv
Format : Matroska
Format version : Version 4 / Version 2
File size : 811 MiB
Duration : 45 min 44 s
Overall bit rate : 2 479 kb/s
Encoded date : UTC 2018-05-10 08:12:28
Writing application : mkvmerge v8.3.0 ('Over the Horizon') 64bit
Writing library : libebml v1.3.1 + libmatroska v1.4.2

Video
ID : 1
Format : AVC
Format/Info : Advanced Video Codec
Format profile : High@L4.1
Format settings : CABAC / 5 Ref Frames
Format settings, CABAC : Yes
Format settings, RefFrames : 5 frames
Codec ID : V_MPEG4/ISO/AVC
Duration : 45 min 44 s
Bit rate : 2 093 kb/s
Width : 1 280 pixels
Height : 534 pixels
Display aspect ratio : 2.40:1
Frame rate mode : Constant
Frame rate : 25.000 FPS
Color space : YUV
Chroma subsampling : 4:2:0
Bit depth : 8 bits
Scan type : Progressive
Bits/(Pixel*Frame) : 0.122
Stream size : 685 MiB (84%)
Writing library : x264 core 155 r2901 7d0ff22
Encoding settings : cabac=1 / ref=5 / deblock=1:-3:-3 / analyse=0x3:0x113 / me=umh / subme=8 / psy=1 / psy_rd=1.00:0.15 / mixed_ref=1 / me_range=16 / chroma_me=1 / trellis=2 / 8x8dct=1 / cqm=0 / deadzone=21,11 / fast_pskip=0 / chroma_qp_offset=-2 / threads=12 / lookahead_threads=2 / sliced_threads=0 / nr=0 / decimate=1 / interlaced=0 / bluray_compat=0 / constrained_intra=0 / bframes=3 / b_pyramid=2 / b_adapt=2 / b_bias=0 / direct=3 / weightb=1 / open_gop=0 / weightp=2 / keyint=250 / keyint_min=25 / scenecut=40 / intra_refresh=0 / rc_lookahead=50 / rc=crf / mbtree=1 / crf=18.0 / qcomp=0.60 / qpmin=0 / qpmax=69 / qpstep=4 / ip_ratio=1.40 / aq=3:0.80
Language : English
Default : Yes
Forced : No

Audio
ID : 2
Format : AC-3
Format/Info : Audio Coding 3
Format settings, Endianness : Big
Codec ID : A_AC3
Duration : 45 min 44 s
Bit rate mode : Constant
Bit rate : 384 kb/s
Channel(s) : 6 channels
Channel positions : Front: L C R, Side: L R, LFE
Sampling rate : 48.0 kHz
Frame rate : 31.250 FPS (1536 SPF)
Bit depth : 16 bits
Compression mode : Lossy
Stream size : 126 MiB (15%)
Language : English
Service kind : Complete Main
Default : Yes
Forced : No

Text #1
ID : 3
Format : UTF-8
Codec ID : S_TEXT/UTF8
Codec ID/Info : UTF-8 Plain Text
Duration : 44 min 42 s
Bit rate : 60 b/s
Count of elements : 691
Stream size : 19.9 KiB (0%)
Language : English
Default : No
Forced : No

Text #2
ID : 4
Format : UTF-8
Codec ID : S_TEXT/UTF8
Codec ID/Info : UTF-8 Plain Text
Duration : 44 min 46 s
Bit rate : 49 b/s
Count of elements : 623
Stream size : 16.2 KiB (0%)
Title : European
Language : Spanish
Default : No
Forced : No

Text #3
ID : 5
Format : UTF-8
Codec ID : S_TEXT/UTF8
Codec ID/Info : UTF-8 Plain Text
Duration : 44 min 46 s
Bit rate : 45 b/s
Count of elements : 618
Stream size : 14.9 KiB (0%)
Language : Polish
Default : No
Forced : No

Text #4
ID : 6
Format : UTF-8
Codec ID : S_TEXT/UTF8
Codec ID/Info : UTF-8 Plain Text
Duration : 44 min 46 s
Bit rate : 55 b/s
Count of elements : 621
Stream size : 18.1 KiB (0%)
Language : Portuguese
Default : No
Forced : No

Text #5
ID : 7
Format : UTF-8
Codec ID : S_TEXT/UTF8
Codec ID/Info : UTF-8 Plain Text
Duration : 44 min 46 s
Bit rate : 49 b/s
Count of elements : 624
Stream size : 16.3 KiB (0%)
Language : Turkish
Default : No
Forced : No





Safe S01E07


Safe S01E07


Safe S01E07


Safe S01E07


Safe S01E07

All episodes