Featured TV Shows


Shadowhunters S03E11

Posted By: Tavaz
SD / WEBRip IMDb
Shadowhunters S03E11

Shadowhunters S03E11
WEBRip | MKV | 992x558 | English | H264 @ 1040 kbps | AAC @ 96 kbps | 42 min 1 s | 342 MiB
Genre: Drama

When Clary Fray's mother has disappeared, Clary joins a band of Shadowhunters; demon killing hunters, and gets caught up in a plan to save the world.

efa9fdcfce8d4953a6d112233d5b20bb.mkv (341.7 MB)



General
Unique ID : 177186400804749096464063748775523039370 (0x854CDC0881CAA224E527FADFFE2AB88A)
Complete name : ./efa9fdcfce8d4953a6d112233d5b20bb.mkv
Format : Matroska
Format version : Version 4 / Version 2
File size : 342 MiB
Duration : 42 min 1 s
Overall bit rate : 1 137 kb/s
Encoded date : UTC 2019-02-26 01:02:59
Writing application : mkvmerge v22.0.0 ('At The End Of The World') 64-bit
Writing library : libebml v1.3.5 + libmatroska v1.4.8

Video
ID : 2
Format : AVC
Format/Info : Advanced Video Codec
Format profile : Main@L3.1
Format settings : CABAC / 2 Ref Frames
Format settings, CABAC : Yes
Format settings, RefFrames : 2 frames
Codec ID : V_MPEG4/ISO/AVC
Duration : 42 min 1 s
Bit rate : 1 040 kb/s
Width : 992 pixels
Height : 558 pixels
Display aspect ratio : 16:9
Frame rate mode : Constant
Frame rate : 23.976 FPS
Color space : YUV
Chroma subsampling : 4:2:0
Bit depth : 8 bits
Scan type : Progressive
Bits/(Pixel*Frame) : 0.078
Stream size : 313 MiB (91%)
Writing library : x264 core 148 r2579M 73ae2d1
Encoding settings : cabac=1 / ref=2 / deblock=1:0:0 / analyse=0x1:0x111 / me=hex / subme=2 / psy=1 / psy_rd=1.00:0.00 / mixed_ref=0 / me_range=16 / chroma_me=1 / trellis=0 / 8x8dct=0 / cqm=0 / deadzone=21,11 / fast_pskip=1 / chroma_qp_offset=0 / threads=4 / lookahead_threads=1 / sliced_threads=0 / nr=250 / decimate=1 / interlaced=0 / bluray_compat=0 / stitchable=1 / constrained_intra=0 / bframes=0 / weightp=1 / keyint=250 / keyint_min=25 / scenecut=40 / intra_refresh=0 / rc_lookahead=10 / rc=2pass / mbtree=1 / bitrate=1040 / ratetol=1.0 / qcomp=0.60 / qpmin=5 / qpmax=69 / qpstep=4 / cplxblur=20.0 / qblur=0.5 / ip_ratio=1.40 / aq=1:1.00
Default : Yes
Forced : No

Audio
ID : 1
Format : AAC
Format/Info : Advanced Audio Codec
Format profile : HE-AAC / LC
Format settings : Implicit
Codec ID : A_AAC-2
Duration : 42 min 1 s
Bit rate : 96.0 kb/s
Channel(s) : 2 channels
Channel positions : Front: L R
Sampling rate : 48.0 kHz / 24.0 kHz
Frame rate : 23.438 FPS (1024 SPF)
Compression mode : Lossy
Stream size : 28.5 MiB (8%)
Default : Yes
Forced : No





Shadowhunters S03E11


Shadowhunters S03E11


Shadowhunters S03E11


Shadowhunters S03E11


Shadowhunters S03E11

All episodes