Index
# A B C D E F G H I J K L M N O P Q R S T U V W Y Z
Tags
Language
Tags

Featured TV Shows


Star Trek: Discovery S02E00

Posted By: Tavaz
SD / WEBRip IMDb
Star Trek: Discovery S02E00

Star Trek: Discovery S02E00
WEBRip | MKV | 720x300 | English | H264 @ 460 kbps | AAC @ 125 kbps | 18 min 21 s | 77.3 MiB
Subtitles: English

Ten years before Kirk, Spock, and the Enterprise there was Discovery. Star Trek, one of the most iconic and influential global television franchises, returns 50 years after it first premiered featuring a new ship, new characters and new missions, while embracing the same ideology and hope for the future that inspired a generation of dreamers and doers.

star.trek.discovery.s02e00.short.treks.calypso.webrip.x264-w4f.mkv (77.3 MB)
star.trek.discovery.s02e00.short.treks.calypso.webrip.x264-w4f-sample.mkv (3.4 MB)



General
Unique ID : 224025180461118844141788406577771178604 (0xA889AE2A69EADA3497AC42CD1E35EA6C)
Complete name : ./star.trek.discovery.s02e00.short.treks.calypso.webrip.x264-w4f.mkv
Format : Matroska
Format version : Version 4 / Version 2
File size : 77.3 MiB
Duration : 18 min 21 s
Overall bit rate : 589 kb/s
Encoded date : UTC 2018-11-11 02:39:09
Writing application : mkvmerge v13.0.0 ('The Juggler') 64bit
Writing library : libebml v1.3.4 + libmatroska v1.4.5

Video
ID : 1
Format : AVC
Format/Info : Advanced Video Codec
Format profile : High@L3.1
Format settings : CABAC / 5 Ref Frames
Format settings, CABAC : Yes
Format settings, RefFrames : 5 frames
Codec ID : V_MPEG4/ISO/AVC
Duration : 18 min 21 s
Bit rate : 461 kb/s
Width : 720 pixels
Height : 300 pixels
Display aspect ratio : 2.40:1
Frame rate mode : Constant
Frame rate : 23.976 (24000/1001) FPS
Color space : YUV
Chroma subsampling : 4:2:0
Bit depth : 8 bits
Scan type : Progressive
Bits/(Pixel*Frame) : 0.089
Stream size : 60.5 MiB (78%)
Writing library : x264 core 157 r2935 545de2f
Encoding settings : cabac=1 / ref=5 / deblock=1:-3:-3 / analyse=0x3:0x113 / me=umh / subme=8 / psy=1 / psy_rd=1.00:0.15 / mixed_ref=1 / me_range=16 / chroma_me=1 / trellis=2 / 8x8dct=1 / cqm=0 / deadzone=21,11 / fast_pskip=1 / chroma_qp_offset=-2 / threads=9 / lookahead_threads=1 / sliced_threads=0 / nr=0 / decimate=1 / interlaced=0 / bluray_compat=0 / constrained_intra=0 / bframes=3 / b_pyramid=2 / b_adapt=2 / b_bias=0 / direct=3 / weightb=1 / open_gop=0 / weightp=2 / keyint=240 / keyint_min=23 / scenecut=40 / intra_refresh=0 / rc_lookahead=50 / rc=crf / mbtree=1 / crf=19.0 / qcomp=0.60 / qpmin=0 / qpmax=69 / qpstep=4 / vbv_maxrate=17500 / vbv_bufsize=17500 / crf_max=0.0 / nal_hrd=none / filler=0 / ip_ratio=1.40 / aq=1:0.80
Language : English
Default : Yes
Forced : No
Color range : Limited
Matrix coefficients : BT.709

Audio
ID : 2
Format : AAC
Format/Info : Advanced Audio Codec
Format profile : LC
Codec ID : A_AAC-2
Duration : 18 min 21 s
Bit rate : 125 kb/s
Channel(s) : 2 channels
Channel positions : Front: L R
Sampling rate : 48.0 kHz
Frame rate : 46.875 FPS (1024 SPF)
Compression mode : Lossy
Stream size : 16.5 MiB (21%)
Language : English
Default : Yes
Forced : No

Text
ID : 3
Format : UTF-8
Codec ID : S_TEXT/UTF8
Codec ID/Info : UTF-8 Plain Text
Duration : 16 min 55 s
Bit rate : 47 b/s
Count of elements : 244
Stream size : 5.83 KiB (0%)
Language : English
Default : No
Forced : No





Star Trek: Discovery S02E00


Star Trek: Discovery S02E00


Star Trek: Discovery S02E00


Star Trek: Discovery S02E00


Star Trek: Discovery S02E00

All episodes