Index
# A B C D E F G H I J K L M N O P Q R S T U V W Y Z
Tags
Language
Tags

Featured TV Shows


Star Trek: Discovery S02E12

Posted By:
Star Trek: Discovery S02E12

Star Trek: Discovery S02E12
MKV | 1280x554 | Nederlands | H264 @ 2089 kbps | MPEG Audio @ 256 kbps | 42 min 16 s | 724 MiB


Follow the voyages of Starfleet on their missions to discover new worlds and new life forms, and one Starfleet officer who must learn that to truly understand all things alien, you must first understand yourself.

456b6b8fa3514940e6a45d6bc040ea4b.mkv (723.7 MB)



General
Unique ID : 231178737175582744972926759336337264185 (0xADEB67BE04D5ED0A9E2F8D883958CE39)
Complete name : ./456b6b8fa3514940e6a45d6bc040ea4b.mkv
Format : Matroska
Format version : Version 4 / Version 2
File size : 724 MiB
Duration : 42 min 16 s
Overall bit rate : 2 393 kb/s
Encoded date : UTC 2021-05-17 09:58:07
Writing application : mkvmerge v6.8.0 ('Theme for Great Cities') 32bit built on Mar 2 2014 21:27:07
Writing library : libebml v1.3.0 + libmatroska v1.4.1

Video
ID : 1
Format : AVC
Format/Info : Advanced Video Codec
Format profile : High@L4.1
Format settings : CABAC / 5 Ref Frames
Format settings, CABAC : Yes
Format settings, RefFrames : 5 frames
Codec ID : V_MPEG4/ISO/AVC
Duration : 42 min 16 s
Bit rate : 2 090 kb/s
Width : 1 280 pixels
Height : 554 pixels
Display aspect ratio : 2.35:1
Frame rate mode : Constant
Frame rate : 25.000 FPS
Color space : YUV
Chroma subsampling : 4:2:0
Bit depth : 8 bits
Scan type : Progressive
Bits/(Pixel*Frame) : 0.118
Stream size : 632 MiB (87%)
Writing library : x264 core 161 r3048 b86ae3c
Encoding settings : cabac=1 / ref=5 / deblock=1:0:0 / analyse=0x3:0x113 / me=hex / subme=8 / psy=1 / psy_rd=1.00:0.00 / mixed_ref=1 / me_range=16 / chroma_me=1 / trellis=2 / 8x8dct=1 / cqm=0 / deadzone=21,11 / fast_pskip=1 / chroma_qp_offset=-2 / threads=17 / lookahead_threads=2 / sliced_threads=0 / nr=0 / decimate=1 / interlaced=0 / bluray_compat=0 / constrained_intra=0 / bframes=3 / b_pyramid=2 / b_adapt=1 / b_bias=0 / direct=3 / weightb=1 / open_gop=0 / weightp=2 / keyint=250 / keyint_min=24 / scenecut=40 / intra_refresh=0 / rc_lookahead=50 / rc=crf / mbtree=1 / crf=18.0 / qcomp=0.60 / qpmin=0 / qpmax=69 / qpstep=4 / ip_ratio=1.40 / aq=1:1.00
Default : Yes
Forced : No

Audio
ID : 2
Format : MPEG Audio
Format version : Version 1
Format profile : Layer 2
Codec ID : A_MPEG/L2
Codec ID/Hint : MP2
Duration : 42 min 16 s
Bit rate mode : Constant
Bit rate : 256 kb/s
Channel(s) : 2 channels
Sampling rate : 48.0 kHz
Compression mode : Lossy
Stream size : 77.4 MiB (11%)
Language : Dutch
Default : Yes
Forced : No





Star Trek: Discovery S02E12


Star Trek: Discovery S02E12


Star Trek: Discovery S02E12


Star Trek: Discovery S02E12


Star Trek: Discovery S02E12

All episodes