Featured TV Shows


The War of the Worlds S02E05

Posted By: Tavaz
The War of the Worlds S02E05

The War of the Worlds S02E05
MKV | 1280x594 | Nederlands | H264 @ 1394 kbps | MPEG Audio @ 192 kbps | 47 min 59 s | 556 MiB
Genre: Drama


In Edwardian England, George and his partner Amy attempt to defy society and start a life together as they face the escalating terror of an alien invasion, fighting for their lives against an enemy beyond their comprehension.

526980879bbd4bf2c8ee9a8461f90b5c.mkv (555.6 MB)



General
Unique ID : 250949311178353536267492107279678236421 (0xBCCB144C7DEED556AA454BEA71E6E705)
Complete name : ./526980879bbd4bf2c8ee9a8461f90b5c.mkv
Format : Matroska
Format version : Version 4 / Version 2
File size : 556 MiB
Duration : 47 min 59 s
Overall bit rate : 1 619 kb/s
Encoded date : UTC 2021-06-04 08:20:41
Writing application : mkvmerge v6.8.0 ('Theme for Great Cities') 32bit built on Mar 2 2014 21:27:07
Writing library : libebml v1.3.0 + libmatroska v1.4.1

Video
ID : 1
Format : AVC
Format/Info : Advanced Video Codec
Format profile : High@L4.1
Format settings : CABAC / 5 Ref Frames
Format settings, CABAC : Yes
Format settings, RefFrames : 5 frames
Codec ID : V_MPEG4/ISO/AVC
Duration : 47 min 59 s
Bit rate : 1 394 kb/s
Width : 1 280 pixels
Height : 594 pixels
Display aspect ratio : 2.2:1
Frame rate mode : Constant
Frame rate : 25.000 FPS
Color space : YUV
Chroma subsampling : 4:2:0
Bit depth : 8 bits
Scan type : Progressive
Bits/(Pixel*Frame) : 0.073
Stream size : 479 MiB (86%)
Writing library : x264 core 163 r3059 b684ebe
Encoding settings : cabac=1 / ref=5 / deblock=1:0:0 / analyse=0x3:0x113 / me=hex / subme=8 / psy=1 / psy_rd=1.00:0.00 / mixed_ref=1 / me_range=16 / chroma_me=1 / trellis=2 / 8x8dct=1 / cqm=0 / deadzone=21,11 / fast_pskip=1 / chroma_qp_offset=-2 / threads=19 / lookahead_threads=3 / sliced_threads=0 / nr=0 / decimate=1 / interlaced=0 / bluray_compat=0 / constrained_intra=0 / bframes=3 / b_pyramid=2 / b_adapt=1 / b_bias=0 / direct=3 / weightb=1 / open_gop=0 / weightp=2 / keyint=250 / keyint_min=24 / scenecut=40 / intra_refresh=0 / rc_lookahead=50 / rc=crf / mbtree=1 / crf=18.0 / qcomp=0.60 / qpmin=0 / qpmax=69 / qpstep=4 / ip_ratio=1.40 / aq=1:1.00
Default : Yes
Forced : No

Audio
ID : 2
Format : MPEG Audio
Format version : Version 1
Format profile : Layer 2
Codec ID : A_MPEG/L2
Codec ID/Hint : MP2
Duration : 47 min 59 s
Bit rate mode : Constant
Bit rate : 192 kb/s
Channel(s) : 2 channels
Sampling rate : 48.0 kHz
Compression mode : Lossy
Stream size : 65.9 MiB (12%)
Language : Dutch
Default : Yes
Forced : No





The War of the Worlds S02E05


The War of the Worlds S02E05


The War of the Worlds S02E05


The War of the Worlds S02E05


The War of the Worlds S02E05

All episodes