Featured TV Shows


Z Nation S05E08

Posted By: Tavaz
SD / HDTV IMDb
Z Nation S05E08

Z Nation S05E08
HDTV | MKV | 720x404 | English | H264 @ 1228 kbps | AAC @ 117 kbps | 42 min 39 s | 411 MiB
Subtitles: English
Genre: Drame

Trois ans après qu'un virus ait ravagé les Etats-Unis, un seul homme est immunisé contre l'infection. Le futur de l'humanité dépend de lui, mais le terrible secret qu'il cache pourrait mettre en danger l'équipe chargée de le conduire jusqu'en Californie, dans un laboratoire susceptible de développer un vaccin. Le chemin sera long et semé d'embûches…

z.nation.s05e08.hdtv.x264-lucidtv.mkv (411.3 MB)
z.nation.s05e08.hdtv.x264-lucidtv-sample.mkv (11.3 MB)



General
Unique ID : 8507999218904179880822125051650334534 (0x66694BF7275D72B994ADEB6DA315F46)
Complete name : ./z.nation.s05e08.hdtv.x264-lucidtv.mkv
Format : Matroska
Format version : Version 4 / Version 2
File size : 411 MiB
Duration : 42 min 39 s
Overall bit rate : 1 348 kb/s
Movie name : Z.Nation.S05E08.HDTV.x264-LucidTV
Encoded date : UTC 2018-11-24 03:12:25
Writing application : mkvmerge v24.0.0 ('Beyond The Pale') 64-bit
Writing library : libebml v1.3.6 + libmatroska v1.4.9

Video
ID : 1
Format : AVC
Format/Info : Advanced Video Codec
Format profile : High@L3.1
Format settings : CABAC / 5 Ref Frames
Format settings, CABAC : Yes
Format settings, RefFrames : 5 frames
Codec ID : V_MPEG4/ISO/AVC
Duration : 42 min 38 s
Bit rate : 1 229 kb/s
Width : 720 pixels
Height : 404 pixels
Display aspect ratio : 16:9
Frame rate mode : Constant
Frame rate : 23.976 (24000/1001) FPS
Color space : YUV
Chroma subsampling : 4:2:0
Bit depth : 8 bits
Scan type : Progressive
Bits/(Pixel*Frame) : 0.176
Stream size : 375 MiB (91%)
Writing library : x264 core 157 r2932 303c484
Encoding settings : cabac=1 / ref=5 / deblock=1:0:0 / analyse=0x3:0x113 / me=hex / subme=8 / psy=1 / psy_rd=1.00:0.00 / mixed_ref=1 / me_range=16 / chroma_me=1 / trellis=2 / 8x8dct=1 / cqm=0 / deadzone=21,11 / fast_pskip=1 / chroma_qp_offset=-2 / threads=13 / lookahead_threads=2 / sliced_threads=0 / nr=0 / decimate=1 / interlaced=0 / bluray_compat=0 / constrained_intra=0 / bframes=3 / b_pyramid=2 / b_adapt=1 / b_bias=0 / direct=3 / weightb=1 / open_gop=0 / weightp=2 / keyint=250 / keyint_min=23 / scenecut=40 / intra_refresh=0 / rc_lookahead=50 / rc=crf / mbtree=1 / crf=19.0 / qcomp=0.60 / qpmin=0 / qpmax=69 / qpstep=4 / ip_ratio=1.40 / aq=1:1.00
Language : English
Default : Yes
Forced : No
Color range : Limited
Matrix coefficients : BT.709

Audio
ID : 2
Format : AAC
Format/Info : Advanced Audio Codec
Format profile : LC
Codec ID : A_AAC-2
Duration : 42 min 39 s
Bit rate : 117 kb/s
Channel(s) : 2 channels
Channel positions : Front: L R
Sampling rate : 48.0 kHz
Frame rate : 46.875 FPS (1024 SPF)
Compression mode : Lossy
Delay relative to video : 20 ms
Stream size : 35.7 MiB (9%)
Language : English
Default : Yes
Forced : No

Text
ID : 3
Format : UTF-8
Codec ID : S_TEXT/UTF8
Codec ID/Info : UTF-8 Plain Text
Duration : 42 min 35 s
Bit rate : 72 b/s
Count of elements : 693
Stream size : 22.6 KiB (0%)
Language : English
Default : No
Forced : No





Z Nation S05E08


Z Nation S05E08


Z Nation S05E08


Z Nation S05E08


Z Nation S05E08

All episodes