Sword Gai The Animation (2018)

Posted By: Lebedev30
Sword Gai The Animation (2018)

Karakai Jouzu no Takagi-san (2018)
WEBRip | MKV | 1920x1080 | H264@7150 Kbps | 24x ~ 25mn | 24x ~700 Mb
日本語 E-AC-3@128 Kbps/日本語 E-AC-3@640 Kbps | 2 channels/6 channels | Subtitles: العربية, English, Español, Português, Italiano, Deutsch, Français
Genre: seinen


Description:
A woman died a suspicious death in the forest. Beside her, the sword-smith Amon finds a new-born boy with a tragic fate and takes him in. About 10 years later, this boy who is named Gai and who has become Amon's apprentice, loses his right arm in an accident while making a sword. Amon decides to take a sword called "Shiryuu", which is a sword with demonic powers that has been passed down for generations, and fashion it into an artificial arm for Gai. That was the beginning of it all…

The story of this boy, who has become one with a demonic weapon and is drawn into a cruel fate in which he must face countless battles, can be seen as either the story of "a beautiful weapon and an ugly person" or of "the cruelty of weapons and the beauty of humans". This is a completely new world of comic noir.






01. Episode 1
02. Episode 2
03. Episode 3
04. Episode 4
05. Episode 5
06. Episode 6
07. Episode 7
08. Episode 8
09. Episode 9
10. Episode 10
11. Episode 11
12. Episode 12


General
Format : Matroska
Format version : Version 4 / Version 2
File size : 1.22 GiB
Duration : 22 min 37 s
Overall bit rate mode : Variable
Overall bit rate : 7 719 kb/s
Encoded date : UTC 2018-10-19 13:36:23
Writing application : mkvmerge v27.0.0 ('Metropolis') 64-bit
Writing library : libebml v1.3.6 + libmatroska v1.4.9

Video
ID : 10
Format : AVC
Format/Info : Advanced Video Codec
Format profile : Main@L4
Format settings : CABAC / 3 Ref Frames
Format settings, CABAC : Yes
Format settings, RefFrames : 3 frames
Codec ID : V_MPEG4/ISO/AVC
Duration : 22 min 37 s
Bit rate mode : Variable
Bit rate : 7 150 kb/s
Maximum bit rate : 10.7 Mb/s
Width : 1 920 pixels
Height : 1 080 pixels
Display aspect ratio : 16:9
Frame rate mode : Constant
Frame rate : 23.976 (24000/1001) FPS
Color space : YUV
Chroma subsampling : 4:2:0
Bit depth : 8 bits
Scan type : Progressive
Bits/(Pixel*Frame) : 0.144
Stream size : 1.10 GiB (90%)
Writing library : x264 core 148 r2714 2daf636
Encoding settings : cabac=1 / ref=3 / deblock=1:0:0 / analyse=0x1:0x111 / me=umh / subme=10 / psy=1 / psy_rd=1.00:0.00 / mixed_ref=1 / me_range=24 / chroma_me=1 / trellis=2 / 8x8dct=0 / cqm=0 / deadzone=21,11 / fast_pskip=1 / chroma_qp_offset=-2 / threads=8 / lookahead_threads=1 / sliced_threads=0 / nr=0 / decimate=1 / interlaced=0 / bluray_compat=0 / stitchable=1 / constrained_intra=0 / bframes=2 / b_pyramid=0 / b_adapt=2 / b_bias=0 / direct=3 / weightb=1 / open_gop=0 / weightp=2 / keyint=48 / keyint_min=25 / scenecut=0 / intra_refresh=0 / rc_lookahead=48 / rc=2pass / mbtree=1 / bitrate=7150 / ratetol=1.0 / qcomp=0.50 / qpmin=6 / qpmax=51 / qpstep=4 / cplxblur=20.0 / qblur=0.5 / vbv_maxrate=10725 / vbv_bufsize=14300 / nal_hrd=vbr / filler=0 / ip_ratio=1.40 / aq=1:1.00
Language : Japanese
Default : Yes
Forced : No

Audio #1
ID : 9
Format : E-AC-3
Format/Info : Enhanced Audio Coding 3
Codec ID : A_EAC3
Duration : 22 min 37 s
Bit rate mode : Constant
Bit rate : 128 kb/s
Channel(s) : 2 channels
Channel positions : Front: L R
Sampling rate : 48.0 kHz
Frame rate : 187.500 FPS (256 SPF)
Compression mode : Lossy
Stream size : 20.7 MiB (2%)
Language : Japanese
Service kind : Complete Main
Default : Yes
Forced : No

Audio #2
ID : 11
Format : E-AC-3
Format/Info : Enhanced Audio Coding 3
Codec ID : A_EAC3
Duration : 22 min 37 s
Bit rate mode : Constant
Bit rate : 640 kb/s
Channel(s) : 6 channels
Channel positions : Front: L C R, Side: L R, LFE
Sampling rate : 48.0 kHz
Frame rate : 187.500 FPS (256 SPF)
Compression mode : Lossy
Stream size : 104 MiB (8%)
Language : Japanese
Service kind : Complete Main
Default : No
Forced : No

Text #1
ID : 1
Format : ASS
Codec ID : S_TEXT/ASS
Codec ID/Info : Advanced Sub Station Alpha
Duration : 19 min 50 s
Bit rate : 55 b/s
Count of elements : 162
Compression mode : Lossless
Stream size : 8.13 KiB (0%)
Language : English
Default : Yes
Forced : No

Text #2
ID : 2
Format : ASS
Codec ID : S_TEXT/ASS
Codec ID/Info : Advanced Sub Station Alpha
Duration : 19 min 43 s
Bit rate : 56 b/s
Count of elements : 160
Compression mode : Lossless
Stream size : 8.18 KiB (0%)
Language : French
Default : No
Forced : No

Text #3
ID : 3
Format : ASS
Codec ID : S_TEXT/ASS
Codec ID/Info : Advanced Sub Station Alpha
Duration : 19 min 43 s
Bit rate : 58 b/s
Count of elements : 160
Compression mode : Lossless
Stream size : 8.39 KiB (0%)
Language : German
Default : No
Forced : No

Text #4
ID : 4
Format : ASS
Codec ID : S_TEXT/ASS
Codec ID/Info : Advanced Sub Station Alpha
Duration : 19 min 43 s
Bit rate : 57 b/s
Count of elements : 160
Compression mode : Lossless
Stream size : 8.28 KiB (0%)
Language : Italian
Default : No
Forced : No

Text #5
ID : 5
Format : ASS
Codec ID : S_TEXT/ASS
Codec ID/Info : Advanced Sub Station Alpha
Duration : 19 min 43 s
Bit rate : 56 b/s
Count of elements : 160
Compression mode : Lossless
Stream size : 8.14 KiB (0%)
Language : Portuguese
Default : No
Forced : No

Text #6
ID : 6
Format : ASS
Codec ID : S_TEXT/ASS
Codec ID/Info : Advanced Sub Station Alpha
Duration : 19 min 43 s
Bit rate : 58 b/s
Count of elements : 160
Compression mode : Lossless
Stream size : 8.40 KiB (0%)
Language : Portuguese
Default : No
Forced : No

Text #7
ID : 7
Format : ASS
Codec ID : S_TEXT/ASS
Codec ID/Info : Advanced Sub Station Alpha
Duration : 21 min 2 s
Bit rate : 54 b/s
Count of elements : 161
Compression mode : Lossless
Stream size : 8.34 KiB (0%)
Language : Spanish
Default : No
Forced : No

Text #8
ID : 8
Format : ASS
Codec ID : S_TEXT/ASS
Codec ID/Info : Advanced Sub Station Alpha
Duration : 21 min 2 s
Bit rate : 54 b/s
Count of elements : 161
Compression mode : Lossless
Stream size : 8.41 KiB (0%)
Language : Spanish
Default : No
Forced : No

Text #9
ID : 12
Format : ASS
Codec ID : S_TEXT/ASS
Codec ID/Info : Advanced Sub Station Alpha
Duration : 21 min 2 s
Bit rate : 75 b/s
Count of elements : 161
Compression mode : Lossless
Stream size : 11.6 KiB (0%)
Language : Arabic
Default : No
Forced : No


Screenshots

Sword Gai The Animation (2018)

Sword Gai The Animation (2018)

Sword Gai The Animation (2018)


My publications | Rss Channel