TO (2009)

Posted By: Lebedev30
TO (2009)

TO (2009)
WEBRip | MKV | 1920x1080 | H264@5559 Kbps | 2x ~ 42mn | 2x ~1.6 Gb
日本語 AAC@128 Kbps | 2 channels | Subtitles: English
Genre: action, science fiction, seinen


Description:
* Adapting two stories from Hoshino Yukinobu's 2001 Nights (2001 Ya Monotogari) manga.

The year is 2068. Humankind has established a moon colony with a population of 300,000 inhabitants. They need supplies and the easiest way to send them is via the Moonlight Bazooka, a gas-powered launcher that shoots the containers into lunar orbit. Then one day the 078962-EK ship, best known as the ghost ship Flying Dutchman, docks after a 15-year journey, carrying the most precious energy resource known by humanity. Space travel is cruel since the travelers only age two years while the rest of humanity ages 15 in the process. The second OVA takes place around 100 years later—humanity now is trying to establish colonies in other solar systems, but the colonists still don't travel as one, and they carry with them their national identities and the seed of war. The planet where they find the most suitable colonization terrain soon shows them that living as separate beings in the universe is not a good way to survive.






01. Elliptical Orbit
02. Symbiotic Planet


General
Format : Matroska
Format version : Version 4 / Version 2
File size : 1.67 GiB
Duration : 41 min 57 s
Overall bit rate : 5 690 kb/s
Encoded date : UTC 2017-08-14 08:48:50
Writing application : mkvmerge v13.0.0 ('The Juggler') 64bit
Writing library : libebml v1.3.4 + libmatroska v1.4.5

Video
ID : 2
Format : AVC
Format/Info : Advanced Video Codec
Format profile : High@L4
Format settings : CABAC / 4 Ref Frames
Format settings, CABAC : Yes
Format settings, RefFrames : 4 frames
Codec ID : V_MPEG4/ISO/AVC
Duration : 41 min 57 s
Bit rate : 5 559 kb/s
Width : 1 920 pixels
Height : 1 080 pixels
Display aspect ratio : 16:9
Frame rate mode : Constant
Frame rate : 23.976 (23976/1000) FPS
Color space : YUV
Chroma subsampling : 4:2:0
Bit depth : 8 bits
Scan type : Progressive
Bits/(Pixel*Frame) : 0.112
Stream size : 1.63 GiB (98%)
Writing library : x264 core 142
Encoding settings : cabac=1 / ref=4 / deblock=1:1:1 / analyse=0x3:0x113 / me=umh / subme=8 / psy=1 / psy_rd=0.40:0.00 / mixed_ref=1 / me_range=16 / chroma_me=1 / trellis=1 / 8x8dct=1 / cqm=0 / deadzone=21,11 / fast_pskip=1 / chroma_qp_offset=-2 / threads=12 / lookahead_threads=2 / sliced_threads=0 / nr=0 / decimate=1 / interlaced=0 / bluray_compat=0 / constrained_intra=0 / bframes=3 / b_pyramid=2 / b_adapt=2 / b_bias=0 / direct=3 / weightb=1 / open_gop=0 / weightp=2 / keyint=48 / keyint_min=24 / scenecut=40 / intra_refresh=0 / rc_lookahead=48 / rc=crf / mbtree=1 / crf=15.0 / qcomp=0.60 / qpmin=0 / qpmax=69 / qpstep=4 / vbv_maxrate=8000 / vbv_bufsize=12000 / crf_max=0.0 / nal_hrd=none / filler=0 / ip_ratio=1.40 / aq=1:0.60
Default : Yes
Forced : No

Audio
ID : 3
Format : AAC
Format/Info : Advanced Audio Codec
Format profile : LC
Codec ID : A_AAC-2
Duration : 41 min 57 s
Bit rate : 128 kb/s
Channel(s) : 2 channels
Channel positions : Front: L R
Sampling rate : 44.1 kHz
Frame rate : 43.066 FPS (1024 SPF)
Compression mode : Lossy
Delay relative to video : -83 ms
Stream size : 38.4 MiB (2%)
Default : Yes
Forced : No

Text
ID : 1
Format : ASS
Codec ID : S_TEXT/ASS
Codec ID/Info : Advanced Sub Station Alpha
Duration : 39 min 55 s
Bit rate : 68 b/s
Count of elements : 295
Compression mode : Lossless
Stream size : 20.2 KiB (0%)
Language : English
Default : Yes
Forced : No


Screenshots

TO (2009)

TO (2009)

TO (2009)


My publications | Rss Channel