Taboo Tattoo (2016)

Posted By: Lebedev30
Taboo Tattoo (2016)

Taboo Tattoo (2016)
WEBRip | MKV | 1920x1080 | H264@6229 Kbps | 12x ~ 25mn | 12x ~1 Gb
日本語 AAC@128 Kbps | 2 channels | Subtitles: العربية, English, Español, Português, Italiano, Deutsch, Français
Genre: action, tragedy, violence


Description:
The story follows Justice Akazuka a.k.a. Seigi, a young man who is good at martial arts. One day, Seigi rescues a homeless old man from some thugs, and the man gives him an object that imprints a tattoo on his palm. However, it is not an ordinary tattoo, but a special weapon that gives Seigi supernatural powers such as warping space-time. Seigi then meets a female American agent named Izzie, whose duty is to recover the tattoos. He decides to help her and gets wrapped up in a cross-national conspiracy.






01. Tattoo
02. Surprise Attack
03. Misery Loves Company
04. Distance
05. Rescue
06. Reunion
07. Storm
08. Creator
09. The Past
10. Letter of Challenge
11. In the Palm of the Hand
12. The Deciding Battle


General
Format : Matroska
Format version : Version 4 / Version 2
File size : 1.07 GiB
Duration : 24 min 6 s
Overall bit rate : 6 358 kb/s
Encoded date : UTC 2019-03-10 09:43:59
Writing application : mkvmerge v26.0.0 ('In The Game') 64-bit
Writing library : libebml v1.3.6 + libmatroska v1.4.9

Video
ID : 1
Format : AVC
Format/Info : Advanced Video Codec
Format profile : High@L4
Format settings : CABAC / 4 Ref Frames
Format settings, CABAC : Yes
Format settings, RefFrames : 4 frames
Codec ID : V_MPEG4/ISO/AVC
Duration : 24 min 5 s
Bit rate : 6 229 kb/s
Width : 1 920 pixels
Height : 1 080 pixels
Display aspect ratio : 16:9
Frame rate mode : Constant
Frame rate : 23.976 (24000/1001) FPS
Color space : YUV
Chroma subsampling : 4:2:0
Bit depth : 8 bits
Scan type : Progressive
Bits/(Pixel*Frame) : 0.125
Stream size : 1.05 GiB (98%)
Writing library : x264 core 142
Encoding settings : cabac=1 / ref=4 / deblock=1:1:1 / analyse=0x3:0x113 / me=umh / subme=8 / psy=1 / psy_rd=0.40:0.00 / mixed_ref=1 / me_range=16 / chroma_me=1 / trellis=1 / 8x8dct=1 / cqm=0 / deadzone=21,11 / fast_pskip=1 / chroma_qp_offset=-2 / threads=12 / lookahead_threads=2 / sliced_threads=0 / nr=0 / decimate=1 / interlaced=0 / bluray_compat=0 / constrained_intra=0 / bframes=3 / b_pyramid=2 / b_adapt=2 / b_bias=0 / direct=3 / weightb=1 / open_gop=0 / weightp=2 / keyint=48 / keyint_min=24 / scenecut=40 / intra_refresh=0 / rc_lookahead=48 / rc=crf / mbtree=1 / crf=15.0 / qcomp=0.60 / qpmin=0 / qpmax=69 / qpstep=4 / vbv_maxrate=8000 / vbv_bufsize=12000 / crf_max=0.0 / nal_hrd=none / filler=0 / ip_ratio=1.40 / aq=1:0.60
Default : Yes
Forced : No

Audio
ID : 2
Format : AAC
Format/Info : Advanced Audio Codec
Format profile : LC
Codec ID : A_AAC-2
Duration : 24 min 5 s
Bit rate : 128 kb/s
Channel(s) : 2 channels
Channel positions : Front: L R
Sampling rate : 44.1 kHz
Frame rate : 43.066 FPS (1024 SPF)
Compression mode : Lossy
Delay relative to video : -83 ms
Stream size : 22.1 MiB (2%)
Default : Yes
Forced : No

Text #1
ID : 3
Format : ASS
Codec ID : S_TEXT/ASS
Codec ID/Info : Advanced Sub Station Alpha
Duration : 23 min 11 s
Bit rate : 127 b/s
Count of elements : 364
Compression mode : Lossless
Stream size : 21.7 KiB (0%)
Title : English(US)
Language : English
Default : Yes
Forced : No

Text #2
ID : 4
Format : ASS
Codec ID : S_TEXT/ASS
Codec ID/Info : Advanced Sub Station Alpha
Duration : 23 min 11 s
Bit rate : 150 b/s
Count of elements : 349
Compression mode : Lossless
Stream size : 25.5 KiB (0%)
Title : Arabic
Language : Arabic
Default : No
Forced : No

Text #3
ID : 5
Format : ASS
Codec ID : S_TEXT/ASS
Codec ID/Info : Advanced Sub Station Alpha
Duration : 23 min 12 s
Bit rate : 135 b/s
Count of elements : 377
Compression mode : Lossless
Stream size : 23.0 KiB (0%)
Title : Deutsch
Language : German
Default : No
Forced : No

Text #4
ID : 6
Format : ASS
Codec ID : S_TEXT/ASS
Codec ID/Info : Advanced Sub Station Alpha
Duration : 23 min 12 s
Bit rate : 103 b/s
Count of elements : 302
Compression mode : Lossless
Stream size : 17.5 KiB (0%)
Title : Espanol(Espana)
Language : Spanish
Default : No
Forced : No

Text #5
ID : 7
Format : ASS
Codec ID : S_TEXT/ASS
Codec ID/Info : Advanced Sub Station Alpha
Duration : 23 min 12 s
Bit rate : 103 b/s
Count of elements : 303
Compression mode : Lossless
Stream size : 17.6 KiB (0%)
Title : Espanol
Language : Spanish
Default : No
Forced : No

Text #6
ID : 8
Format : ASS
Codec ID : S_TEXT/ASS
Codec ID/Info : Advanced Sub Station Alpha
Duration : 23 min 12 s
Bit rate : 120 b/s
Count of elements : 321
Compression mode : Lossless
Stream size : 20.5 KiB (0%)
Title : Francais(France)
Language : French
Default : No
Forced : No

Text #7
ID : 9
Format : ASS
Codec ID : S_TEXT/ASS
Codec ID/Info : Advanced Sub Station Alpha
Duration : 23 min 11 s
Bit rate : 130 b/s
Count of elements : 350
Compression mode : Lossless
Stream size : 22.2 KiB (0%)
Title : Italiano
Language : Italian
Default : No
Forced : No

Text #8
ID : 10
Format : ASS
Codec ID : S_TEXT/ASS
Codec ID/Info : Advanced Sub Station Alpha
Duration : 23 min 11 s
Bit rate : 145 b/s
Count of elements : 364
Compression mode : Lossless
Stream size : 24.6 KiB (0%)
Title : Portugues(Brasil)
Language : Portuguese
Default : No
Forced : No


Screenshots

Taboo Tattoo (2016)

Taboo Tattoo (2016)

Taboo Tattoo (2016)


My publications | Rss Channel