Tada-kun wa Koi o Shinai (2018)

Posted By: Lebedev30
Tada-kun wa Koi o Shinai (2018)

Tada-kun wa Koi o Shinai (2018)
WEBRip | MKV | 1920x1080 | H264@1682 Kbps | 13x ~ 25mn | 13x ~300 Mb
日本語 AAC@159 Kbps | 2 channels | Subtitles: English, Español, Português
Genre: love polygon, romance


Description:
Tada Mitsuyoshi, a boy who has never known love, is taking pictures of the cherry blossoms in full bloom when he meets Teresa Wagner, a transfer student from Luxembourg. Upon arriving in Japan, she got lost, separated from her travel companion. Mitsuyoshi helps her and brings her to his grandfather's coffee shop.






01. I Can`t Just Leave You
02. Well, She`s Not Wrong
03. You Love That
04. I`ll Pretend I Didn`t See This
05. It`s Okay. They Don`t Exist
06. I`m Not a Rain-Bringer
07. It`s Better Than Crying
08. Did You Say You Were a Rain-Bringer?
09. I Don`t Have One Now…
10. It Isn`t the Real One
11. Not Really
12. Sorry for Surprising You…
13. I`ll Never Forget It, Either


General
Format : Matroska
Format version : Version 4 / Version 2
File size : 315 MiB
Duration : 23 min 51 s
Overall bit rate : 1 844 kb/s
Encoded date : UTC 2018-04-06 15:30:52
Writing application : mkvmerge v22.0.0 ('At The End Of The World') 32-bit
Writing library : libebml v1.3.5 + libmatroska v1.4.8

Video
ID : 2
Format : AVC
Format/Info : Advanced Video Codec
Format profile : High@L4.1
Format settings : CABAC / 4 Ref Frames
Format settings, CABAC : Yes
Format settings, RefFrames : 4 frames
Codec ID : V_MPEG4/ISO/AVC
Duration : 23 min 51 s
Bit rate : 1 682 kb/s
Width : 1 920 pixels
Height : 1 080 pixels
Display aspect ratio : 16:9
Frame rate mode : Constant
Frame rate : 23.976 (24000/1001) FPS
Color space : YUV
Chroma subsampling : 4:2:0
Bit depth : 8 bits
Scan type : Progressive
Bits/(Pixel*Frame) : 0.034
Stream size : 287 MiB (91%)
Writing library : x264 core 148
Encoding settings : cabac=1 / ref=3 / deblock=1:0:0 / analyse=0x3:0x113 / me=hex / subme=7 / psy=1 / psy_rd=1.00:0.00 / mixed_ref=1 / me_range=16 / chroma_me=1 / trellis=1 / 8x8dct=1 / cqm=0 / deadzone=21,11 / fast_pskip=1 / chroma_qp_offset=-2 / threads=34 / lookahead_threads=5 / sliced_threads=0 / nr=0 / decimate=1 / interlaced=0 / bluray_compat=0 / constrained_intra=0 / bframes=3 / b_pyramid=2 / b_adapt=1 / b_bias=0 / direct=1 / weightb=1 / open_gop=0 / weightp=2 / keyint=90 / keyint_min=9 / scenecut=0 / intra_refresh=0 / rc_lookahead=40 / rc=crf / mbtree=1 / crf=22.0 / qcomp=0.60 / qpmin=0 / qpmax=69 / qpstep=4 / vbv_maxrate=13500 / vbv_bufsize=135000 / crf_max=0.0 / nal_hrd=none / filler=0 / ip_ratio=1.40 / aq=1:1.00
Language : Japanese
Default : Yes
Forced : No

Audio
ID : 3
Format : AAC
Format/Info : Advanced Audio Codec
Format profile : LC
Codec ID : A_AAC-2
Duration : 23 min 51 s
Bit rate : 159 kb/s
Channel(s) : 2 channels
Channel positions : Front: L R
Sampling rate : 48.0 kHz
Frame rate : 46.875 FPS (1024 SPF)
Compression mode : Lossy
Delay relative to video : -43 ms
Stream size : 27.2 MiB (9%)
Language : Japanese
Default : Yes
Forced : No

Text #1
ID : 1
Format : ASS
Codec ID : S_TEXT/ASS
Codec ID/Info : Advanced Sub Station Alpha
Duration : 23 min 21 s
Bit rate : 110 b/s
Count of elements : 399
Compression mode : Lossless
Stream size : 18.9 KiB (0%)
Language : English
Default : Yes
Forced : No

Text #2
ID : 4
Format : ASS
Codec ID : S_TEXT/ASS
Codec ID/Info : Advanced Sub Station Alpha
Duration : 23 min 21 s
Bit rate : 110 b/s
Count of elements : 408
Compression mode : Lossless
Stream size : 18.9 KiB (0%)
Language : Spanish
Default : No
Forced : No

Text #3
ID : 5
Format : ASS
Codec ID : S_TEXT/ASS
Codec ID/Info : Advanced Sub Station Alpha
Duration : 23 min 21 s
Bit rate : 108 b/s
Count of elements : 405
Compression mode : Lossless
Stream size : 18.5 KiB (0%)
Language : Portuguese
Default : No
Forced : No


Screenshots

Tada-kun wa Koi o Shinai (2018)

Tada-kun wa Koi o Shinai (2018)

Tada-kun wa Koi o Shinai (2018)


My publications | Rss Channel