Tensei Shitara Slime Datta Ken (2018-2019)

Posted By: Lebedev30
Tensei Shitara Slime Datta Ken (2018-2019)

Tensei Shitara Slime Datta Ken (2018-2019)
WEBRip | MKV | 1920x1080 | H264@5968 Kbps | 26x ~ 25mn | 26x ~900 Mb
日本語 AAC@128 Kbps | 2 channels | Subtitles: العربية, English, Español, Português, Русский, Italiano, Deutsch, Français
Genre: action, adventure, demon, fantasy, goblin


Description:
* Based on a light novel written by Fuse and illustrated by Mitz Vah.

Lonely thirty-seven-year-old Mikami Satoru is stuck in a dead-end job, unhappy with his mundane life, but after dying at the hands of a robber, he awakens to a fresh start in a fantasy realm…as a slime monster! As he acclimates to his goopy new existence, his exploits with the other monsters set off a chain of events that will change his new world forever!






01. The Storm Dragon, Veldora
02. Meeting the Goblins
03. Battle at the Goblin Village
04. In the Kingdom of the Dwarves
05. Hero King, Gazel Dwargo
06. Shizu
07. Conqueror of Flames
08. Inherited Will
09. Attack of the Ogres
10. The Orc Lord
11. Gabiru Is Here!
12. The Gears Spin Out of Control
13. The Great Clash
14. The One Who Devours All
15. The Jura Forest Alliance
16. Demon Lord Milim Attacks
17. The Gathering
18. Evil Creeps Closer
19. Charybdis
20. Yuuki Kagurazaka
21. Shizu-san`s Students
22. Conquering the Labyrinth
23. Saved Souls
24. Black and the Mask
S1. Tales: Veldora`s Journal


General
Format : Matroska
Format version : Version 4 / Version 2
File size : 1.01 GiB
Duration : 23 min 42 s
Overall bit rate : 6 101 kb/s
Encoded date : UTC 2018-10-01 15:53:26
Writing application : mkvmerge v26.0.0 ('In The Game') 64-bit
Writing library : libebml v1.3.6 + libmatroska v1.4.9

Video
ID : 1
Format : AVC
Format/Info : Advanced Video Codec
Format profile : High@L4
Format settings : CABAC / 4 Ref Frames
Format settings, CABAC : Yes
Format settings, RefFrames : 4 frames
Codec ID : V_MPEG4/ISO/AVC
Duration : 23 min 42 s
Bit rate : 5 968 kb/s
Width : 1 920 pixels
Height : 1 080 pixels
Display aspect ratio : 16:9
Frame rate mode : Constant
Frame rate : 23.976 (24000/1001) FPS
Color space : YUV
Chroma subsampling : 4:2:0
Bit depth : 8 bits
Scan type : Progressive
Bits/(Pixel*Frame) : 0.120
Stream size : 1 012 MiB (98%)
Writing library : x264 core 142
Encoding settings : cabac=1 / ref=4 / deblock=1:1:1 / analyse=0x3:0x113 / me=umh / subme=8 / psy=1 / psy_rd=0.40:0.00 / mixed_ref=1 / me_range=16 / chroma_me=1 / trellis=1 / 8x8dct=1 / cqm=0 / deadzone=21,11 / fast_pskip=1 / chroma_qp_offset=-2 / threads=12 / lookahead_threads=2 / sliced_threads=0 / nr=0 / decimate=1 / interlaced=0 / bluray_compat=0 / constrained_intra=0 / bframes=3 / b_pyramid=2 / b_adapt=2 / b_bias=0 / direct=3 / weightb=1 / open_gop=0 / weightp=2 / keyint=48 / keyint_min=25 / scenecut=0 / intra_refresh=0 / rc_lookahead=48 / rc=crf / mbtree=1 / crf=15.0 / qcomp=0.60 / qpmin=0 / qpmax=69 / qpstep=4 / vbv_maxrate=8000 / vbv_bufsize=12000 / crf_max=0.0 / nal_hrd=none / filler=0 / ip_ratio=1.40 / aq=1:0.60
Default : Yes
Forced : No

Audio
ID : 2
Format : AAC
Format/Info : Advanced Audio Codec
Format profile : LC
Codec ID : A_AAC-2
Duration : 23 min 42 s
Bit rate : 128 kb/s
Channel(s) : 2 channels
Channel positions : Front: L R
Sampling rate : 44.1 kHz
Frame rate : 43.066 FPS (1024 SPF)
Compression mode : Lossy
Delay relative to video : -83 ms
Stream size : 21.7 MiB (2%)
Default : Yes
Forced : No

Text #1
ID : 3
Format : ASS
Codec ID : S_TEXT/ASS
Codec ID/Info : Advanced Sub Station Alpha
Duration : 23 min 12 s
Bit rate : 202 b/s
Count of elements : 476
Compression mode : Lossless
Stream size : 34.4 KiB (0%)
Title : English(US)
Language : English
Default : Yes
Forced : No

Text #2
ID : 4
Format : ASS
Codec ID : S_TEXT/ASS
Codec ID/Info : Advanced Sub Station Alpha
Duration : 23 min 12 s
Bit rate : 242 b/s
Count of elements : 476
Compression mode : Lossless
Stream size : 41.3 KiB (0%)
Title : Arabic
Language : Arabic
Default : No
Forced : No

Text #3
ID : 5
Format : ASS
Codec ID : S_TEXT/ASS
Codec ID/Info : Advanced Sub Station Alpha
Duration : 23 min 12 s
Bit rate : 219 b/s
Count of elements : 480
Compression mode : Lossless
Stream size : 37.4 KiB (0%)
Title : Deutsch
Language : German
Default : No
Forced : No

Text #4
ID : 6
Format : ASS
Codec ID : S_TEXT/ASS
Codec ID/Info : Advanced Sub Station Alpha
Duration : 23 min 12 s
Bit rate : 153 b/s
Count of elements : 389
Compression mode : Lossless
Stream size : 26.2 KiB (0%)
Title : Espanol(Espana)
Language : Spanish
Default : No
Forced : No

Text #5
ID : 7
Format : ASS
Codec ID : S_TEXT/ASS
Codec ID/Info : Advanced Sub Station Alpha
Duration : 23 min 12 s
Bit rate : 153 b/s
Count of elements : 389
Compression mode : Lossless
Stream size : 26.0 KiB (0%)
Title : Espanol
Language : Spanish
Default : No
Forced : No

Text #6
ID : 8
Format : ASS
Codec ID : S_TEXT/ASS
Codec ID/Info : Advanced Sub Station Alpha
Duration : 23 min 11 s
Bit rate : 161 b/s
Count of elements : 416
Compression mode : Lossless
Stream size : 27.5 KiB (0%)
Title : Francais(France)
Language : French
Default : No
Forced : No

Text #7
ID : 9
Format : ASS
Codec ID : S_TEXT/ASS
Codec ID/Info : Advanced Sub Station Alpha
Duration : 23 min 12 s
Bit rate : 198 b/s
Count of elements : 525
Compression mode : Lossless
Stream size : 33.7 KiB (0%)
Title : Italiano
Language : Italian
Default : No
Forced : No

Text #8
ID : 10
Format : ASS
Codec ID : S_TEXT/ASS
Codec ID/Info : Advanced Sub Station Alpha
Duration : 23 min 12 s
Bit rate : 202 b/s
Count of elements : 475
Compression mode : Lossless
Stream size : 34.3 KiB (0%)
Title : Portugues(Brasil)
Language : Portuguese
Default : No
Forced : No

Text #9
ID : 11
Format : ASS
Codec ID : S_TEXT/ASS
Codec ID/Info : Advanced Sub Station Alpha
Duration : 23 min 12 s
Bit rate : 276 b/s
Count of elements : 468
Compression mode : Lossless
Stream size : 47.0 KiB (0%)
Title : Russian
Language : Russian
Default : No
Forced : No


Screenshots

Tensei Shitara Slime Datta Ken (2018-2019)

Tensei Shitara Slime Datta Ken (2018-2019)

Tensei Shitara Slime Datta Ken (2018-2019)


My publications | Rss Channel