Tags
Language
Tags

Trinity Seven (2014)

Posted By: Lebedev30
Trinity Seven (2014)

Trinity Seven (2014)
WEBRip | MKV | 1920x1080 | H264@5791 Kbps | 12x ~ 25mn | 12x ~0.9 Gb
日本語 AAC@128 Kbps | 2 channels | Subtitles: English, Español, Português, Italiano, Deutsch
Genre: action, comedy, ecchi, fantasy, harem, magic, shounen


Description:
Every day is a normal day in the small town where Kasuga Arata lives. However, everything changed on the day of the Black Sun, and following it, a magician appears before him. The Black Sun caused the Breakdown Phenomenon which destroyed the town where he lives. Because of this, his normal life was artificially reconstructed by a Grimoire that his childhood friend had left. Just what is the purpose of the magician coming to the town? What will he do with the Grimoire's keepsake?






01. Administer and Third Selection
02. Prison Lock and Grimoire Security
03. Magus and Alchemist
04. Labyrinth and Magic Gunner
05. Dream World and Sub-Administer
06. Dark Mage and Big Event
07. Lost Technica and Problem Solving
08. Study and Holiday
09. Bible Battle and Sweet Memory
10. Game Master and Satan Slave
11. Fianna Knights and Sisters
12. Criminal Girl and His World


General
Format : Matroska
Format version : Version 4 / Version 2
File size : 1 013 MiB
Duration : 23 min 54 s
Overall bit rate : 5 922 kb/s
Encoded date : UTC 2019-03-11 06:56:02
Writing application : mkvmerge v26.0.0 ('In The Game') 64-bit
Writing library : libebml v1.3.6 + libmatroska v1.4.9

Video
ID : 1
Format : AVC
Format/Info : Advanced Video Codec
Format profile : High@L4
Format settings : CABAC / 4 Ref Frames
Format settings, CABAC : Yes
Format settings, RefFrames : 4 frames
Codec ID : V_MPEG4/ISO/AVC
Duration : 23 min 54 s
Bit rate : 5 791 kb/s
Width : 1 920 pixels
Height : 1 080 pixels
Display aspect ratio : 16:9
Frame rate mode : Constant
Frame rate : 23.976 (24000/1001) FPS
Color space : YUV
Chroma subsampling : 4:2:0
Bit depth : 8 bits
Scan type : Progressive
Bits/(Pixel*Frame) : 0.116
Stream size : 990 MiB (98%)
Writing library : x264 core 142
Encoding settings : cabac=1 / ref=4 / deblock=1:1:1 / analyse=0x3:0x113 / me=umh / subme=8 / psy=1 / psy_rd=0.40:0.00 / mixed_ref=1 / me_range=16 / chroma_me=1 / trellis=1 / 8x8dct=1 / cqm=0 / deadzone=21,11 / fast_pskip=1 / chroma_qp_offset=-2 / threads=12 / lookahead_threads=2 / sliced_threads=0 / nr=0 / decimate=1 / interlaced=0 / bluray_compat=0 / constrained_intra=0 / bframes=3 / b_pyramid=2 / b_adapt=2 / b_bias=0 / direct=3 / weightb=1 / open_gop=0 / weightp=2 / keyint=48 / keyint_min=24 / scenecut=40 / intra_refresh=0 / rc_lookahead=48 / rc=crf / mbtree=1 / crf=15.0 / qcomp=0.60 / qpmin=0 / qpmax=69 / qpstep=4 / vbv_maxrate=8000 / vbv_bufsize=12000 / crf_max=0.0 / nal_hrd=none / filler=0 / ip_ratio=1.40 / aq=1:0.60
Default : Yes
Forced : No

Audio
ID : 2
Format : AAC
Format/Info : Advanced Audio Codec
Format profile : LC
Codec ID : A_AAC-2
Duration : 23 min 54 s
Bit rate : 128 kb/s
Channel(s) : 2 channels
Channel positions : Front: L R
Sampling rate : 44.1 kHz
Frame rate : 43.066 FPS (1024 SPF)
Compression mode : Lossy
Delay relative to video : -83 ms
Stream size : 21.9 MiB (2%)
Default : Yes
Forced : No

Text #1
ID : 3
Format : ASS
Codec ID : S_TEXT/ASS
Codec ID/Info : Advanced Sub Station Alpha
Duration : 22 min 22 s
Bit rate : 174 b/s
Count of elements : 383
Compression mode : Lossless
Stream size : 28.7 KiB (0%)
Title : English(US)
Language : English
Default : Yes
Forced : No

Text #2
ID : 4
Format : ASS
Codec ID : S_TEXT/ASS
Codec ID/Info : Advanced Sub Station Alpha
Duration : 22 min 22 s
Bit rate : 179 b/s
Count of elements : 383
Compression mode : Lossless
Stream size : 29.3 KiB (0%)
Title : Deutsch
Language : German
Default : No
Forced : No

Text #3
ID : 5
Format : ASS
Codec ID : S_TEXT/ASS
Codec ID/Info : Advanced Sub Station Alpha
Duration : 22 min 22 s
Bit rate : 174 b/s
Count of elements : 386
Compression mode : Lossless
Stream size : 28.6 KiB (0%)
Title : Espanol(Espana)
Language : Spanish
Default : No
Forced : No

Text #4
ID : 6
Format : ASS
Codec ID : S_TEXT/ASS
Codec ID/Info : Advanced Sub Station Alpha
Duration : 22 min 22 s
Bit rate : 172 b/s
Count of elements : 387
Compression mode : Lossless
Stream size : 28.3 KiB (0%)
Title : Espanol
Language : Spanish
Default : No
Forced : No

Text #5
ID : 7
Format : ASS
Codec ID : S_TEXT/ASS
Codec ID/Info : Advanced Sub Station Alpha
Duration : 22 min 22 s
Bit rate : 157 b/s
Count of elements : 407
Compression mode : Lossless
Stream size : 25.8 KiB (0%)
Title : Francais(France)
Language : French
Default : No
Forced : No

Text #6
ID : 8
Format : ASS
Codec ID : S_TEXT/ASS
Codec ID/Info : Advanced Sub Station Alpha
Duration : 22 min 22 s
Bit rate : 149 b/s
Count of elements : 383
Compression mode : Lossless
Stream size : 24.5 KiB (0%)
Title : Italiano
Language : Italian
Default : No
Forced : No

Text #7
ID : 9
Format : ASS
Codec ID : S_TEXT/ASS
Codec ID/Info : Advanced Sub Station Alpha
Duration : 22 min 22 s
Bit rate : 176 b/s
Count of elements : 391
Compression mode : Lossless
Stream size : 28.9 KiB (0%)
Title : Portugues(Brasil)
Language : Portuguese
Default : No
Forced : No


Screenshots

Trinity Seven (2014)

Trinity Seven (2014)

Trinity Seven (2014)


My publications | Rss Channel