Tags
Language
Tags

Radiant (2019) (4-7)

Posted By: Lebedev30
Radiant (2019) (4-7)

Radiant (2019) (4-7)
WEBRip | MKV | 1920x1080 | H264@8000 Kbps | 4x ~ 25mn | 4x ~1.3 Gb
日本語 AAC@128 Kbps | 2 channels | Subtitles: English, Español, Português, Русский, Italiano, Deutsch
Genre: action, fantasy, high fantasy, magic, shounen, Western comics


Description:
* Based on a French comic book series by Tony Valente.

Seth, Melie, and Doc encounter new allies in Caislean Merlin – the stronghold of the Knights-sorcerers, a group that is also after the monster called Némésis. Seth's adventure accelerates with the addition of Ocoho, a girl who hopes to become a Knights-sorcerer, a farewell with Melie and Doc, and a clash with the malicious Merchant-Barons! And all this with the Inquisition still at his heels!






04. The Bringer of Calamity: Dullahan
05. Silent Rain, Distant Hearts: Rain
06. His Name Is: Diabal
07. The Spectre Battle: Spectre


General
Format : Matroska
Format version : Version 4 / Version 2
File size : 1.39 GiB
Duration : 24 min 30 s
Overall bit rate : 8 106 kb/s
Encoded date : UTC 2019-10-23 13:04:23
Writing application : mkvmerge v26.0.0 ('In The Game') 64-bit
Writing library : libebml v1.3.6 + libmatroska v1.4.9

Video
ID : 1
Format : AVC
Format/Info : Advanced Video Codec
Format profile : High@L4
Format settings : CABAC / 4 Ref Frames
Format settings, CABAC : Yes
Format settings, RefFrames : 4 frames
Format settings, GOP : M=1, N=48
Codec ID : V_MPEG4/ISO/AVC
Duration : 24 min 30 s
Bit rate : 8 000 kb/s
Width : 1 920 pixels
Height : 1 080 pixels
Display aspect ratio : 16:9
Frame rate mode : Constant
Frame rate : 23.976 (24000/1001) FPS
Color space : YUV
Chroma subsampling : 4:2:0
Bit depth : 8 bits
Scan type : Progressive
Bits/(Pixel*Frame) : 0.161
Stream size : 1.36 GiB (98%)
Writing library : x264 core 142
Encoding settings : cabac=1 / ref=4 / deblock=1:1:1 / analyse=0x3:0x113 / me=umh / subme=8 / psy=1 / psy_rd=0.40:0.00 / mixed_ref=1 / me_range=16 / chroma_me=1 / trellis=1 / 8x8dct=1 / cqm=0 / deadzone=21,11 / fast_pskip=1 / chroma_qp_offset=-2 / threads=12 / lookahead_threads=2 / sliced_threads=0 / nr=0 / decimate=1 / interlaced=0 / bluray_compat=0 / constrained_intra=0 / bframes=0 / weightp=2 / keyint=96 / keyint_min=48 / scenecut=40 / intra_refresh=0 / rc_lookahead=48 / rc=2pass / mbtree=1 / bitrate=8000 / ratetol=1.0 / qcomp=0.60 / qpmin=0 / qpmax=69 / qpstep=4 / cplxblur=20.0 / qblur=0.5 / vbv_maxrate=12000 / vbv_bufsize=18000 / nal_hrd=none / filler=0 / ip_ratio=1.40 / aq=1:0.60
Default : Yes
Forced : No

Audio
ID : 2
Format : AAC
Format/Info : Advanced Audio Codec
Format profile : LC
Codec ID : A_AAC-2
Duration : 24 min 30 s
Bit rate : 128 kb/s
Channel(s) : 2 channels
Channel positions : Front: L R
Sampling rate : 44.1 kHz
Frame rate : 43.066 FPS (1024 SPF)
Compression mode : Lossy
Stream size : 22.4 MiB (2%)
Default : Yes
Forced : No

Text #1
ID : 3
Format : ASS
Codec ID : S_TEXT/ASS
Codec ID/Info : Advanced Sub Station Alpha
Duration : 24 min 28 s
Bit rate : 135 b/s
Count of elements : 373
Compression mode : Lossless
Stream size : 24.4 KiB (0%)
Title : English(US)
Language : English
Default : Yes
Forced : No

Text #2
ID : 4
Format : ASS
Codec ID : S_TEXT/ASS
Codec ID/Info : Advanced Sub Station Alpha
Duration : 24 min 28 s
Bit rate : 170 b/s
Count of elements : 373
Compression mode : Lossless
Stream size : 30.5 KiB (0%)
Title : Arabic
Language : Arabic
Default : No
Forced : No

Text #3
ID : 5
Format : ASS
Codec ID : S_TEXT/ASS
Codec ID/Info : Advanced Sub Station Alpha
Duration : 24 min 22 s
Bit rate : 139 b/s
Count of elements : 356
Compression mode : Lossless
Stream size : 24.9 KiB (0%)
Title : Francais(France)
Language : French
Default : No
Forced : No

Text #4
ID : 6
Format : ASS
Codec ID : S_TEXT/ASS
Codec ID/Info : Advanced Sub Station Alpha
Duration : 24 min 28 s
Bit rate : 144 b/s
Count of elements : 371
Compression mode : Lossless
Stream size : 25.9 KiB (0%)
Title : Deutsch
Language : German
Default : No
Forced : No

Text #5
ID : 7
Format : ASS
Codec ID : S_TEXT/ASS
Codec ID/Info : Advanced Sub Station Alpha
Duration : 24 min 28 s
Bit rate : 147 b/s
Count of elements : 372
Compression mode : Lossless
Stream size : 26.4 KiB (0%)
Title : Italiano
Language : Italian
Default : No
Forced : No

Text #6
ID : 8
Format : ASS
Codec ID : S_TEXT/ASS
Codec ID/Info : Advanced Sub Station Alpha
Duration : 24 min 28 s
Bit rate : 135 b/s
Count of elements : 369
Compression mode : Lossless
Stream size : 24.4 KiB (0%)
Title : Espanol(Espana)
Language : Spanish
Default : No
Forced : No

Text #7
ID : 9
Format : ASS
Codec ID : S_TEXT/ASS
Codec ID/Info : Advanced Sub Station Alpha
Duration : 24 min 28 s
Bit rate : 135 b/s
Count of elements : 369
Compression mode : Lossless
Stream size : 24.3 KiB (0%)
Title : Espanol
Language : Spanish
Default : No
Forced : No

Text #8
ID : 10
Format : ASS
Codec ID : S_TEXT/ASS
Codec ID/Info : Advanced Sub Station Alpha
Duration : 24 min 28 s
Bit rate : 152 b/s
Count of elements : 373
Compression mode : Lossless
Stream size : 27.3 KiB (0%)
Title : Portugues(Brasil)
Language : Portuguese
Default : No
Forced : No

Text #9
ID : 11
Format : ASS
Codec ID : S_TEXT/ASS
Codec ID/Info : Advanced Sub Station Alpha
Duration : 24 min 23 s
Bit rate : 177 b/s
Count of elements : 364
Compression mode : Lossless
Stream size : 31.7 KiB (0%)
Title : Russian
Language : Russian
Default : No
Forced : No


Screenshots

Radiant (2019) (4-7)

Radiant (2019) (4-7)

Radiant (2019) (4-7)


My publications | Rss Channel