Tags
Language
Tags

Yesterday o Utatte (2020) (1-11)

Posted By: Lebedev30
Yesterday o Utatte (2020) (1-11)

Yesterday o Utatte (2020) (1-11)
WEBRip | MKV | 1920x1080 | H264@8000 Kbps | 11x ~ 25mn | 11x ~1.3 Gb
日本語 AAC@128 Kbps | 2 channels | Subtitles: English, Español, Português, Русский, Italiano, Deutsch, Français


Description:
* Based on a romance seinen manga series by Toume Kei.

After college, Uozumi Rikuo, a man without much ambition in life, takes on a job at a convenience store. The days pass by uneventfully for Rikuo until he meets his former love interest and classmate, but especially thanks to the unusual Nonaka Haru, and her pet crow…




01. A Misfit`s Attempt at Self-Reform
02. Cul-de-sac
03. What Is Love?
04. As the River Flows, Shinako Returns Home
05. The Man Named Minato
06. The Woman Named Yuzuhara
07. Premonition of a Couple
08. Innocent Blue
09. Christmas Carol
10. A New Year of Beginnings
11. A Spring Storm


General
Format : Matroska
Format version : Version 4 / Version 2
File size : 1.32 GiB
Duration : 23 min 13 s
Overall bit rate : 8 121 kb/s
Encoded date : UTC 2020-04-04 18:29:04
Writing application : mkvmerge v26.0.0 ('In The Game') 64-bit
Writing library : libebml v1.3.6 + libmatroska v1.4.9

Video
ID : 1
Format : AVC
Format/Info : Advanced Video Codec
Format profile : High@L4
Format settings : CABAC / 4 Ref Frames
Format settings, CABAC : Yes
Format settings, RefFrames : 4 frames
Codec ID : V_MPEG4/ISO/AVC
Duration : 23 min 12 s
Bit rate : 8 000 kb/s
Width : 1 920 pixels
Height : 1 080 pixels
Display aspect ratio : 16:9
Frame rate mode : Constant
Frame rate : 23.976 (24000/1001) FPS
Color space : YUV
Chroma subsampling : 4:2:0
Bit depth : 8 bits
Scan type : Progressive
Bits/(Pixel*Frame) : 0.161
Stream size : 1.30 GiB (98%)
Writing library : x264 core 142
Encoding settings : cabac=1 / ref=4 / deblock=1:1:1 / analyse=0x3:0x113 / me=umh / subme=8 / psy=1 / psy_rd=0.40:0.00 / mixed_ref=1 / me_range=16 / chroma_me=1 / trellis=1 / 8x8dct=1 / cqm=0 / deadzone=21,11 / fast_pskip=1 / chroma_qp_offset=-2 / threads=12 / lookahead_threads=2 / sliced_threads=0 / nr=0 / decimate=1 / interlaced=0 / bluray_compat=0 / constrained_intra=0 / bframes=0 / weightp=2 / keyint=96 / keyint_min=48 / scenecut=40 / intra_refresh=0 / rc_lookahead=48 / rc=2pass / mbtree=1 / bitrate=8000 / ratetol=1.0 / qcomp=0.60 / qpmin=0 / qpmax=69 / qpstep=4 / cplxblur=20.0 / qblur=0.5 / vbv_maxrate=12000 / vbv_bufsize=18000 / nal_hrd=none / filler=0 / ip_ratio=1.40 / aq=1:0.60
Default : Yes
Forced : No

Audio
ID : 2
Format : AAC
Format/Info : Advanced Audio Codec
Format profile : LC
Codec ID : A_AAC-2
Duration : 23 min 13 s
Bit rate : 128 kb/s
Channel(s) : 2 channels
Channel positions : Front: L R
Sampling rate : 44.1 kHz
Frame rate : 43.066 FPS (1024 SPF)
Compression mode : Lossy
Stream size : 21.3 MiB (2%)
Default : Yes
Forced : No

Text #1
ID : 3
Format : ASS
Codec ID : S_TEXT/ASS
Codec ID/Info : Advanced Sub Station Alpha
Duration : 21 min 27 s
Bit rate : 160 b/s
Count of elements : 403
Compression mode : Lossless
Stream size : 25.2 KiB (0%)
Title : English(US)
Language : English
Default : Yes
Forced : No

Text #2
ID : 4
Format : ASS
Codec ID : S_TEXT/ASS
Codec ID/Info : Advanced Sub Station Alpha
Duration : 21 min 27 s
Bit rate : 153 b/s
Count of elements : 373
Compression mode : Lossless
Stream size : 24.1 KiB (0%)
Title : Francais(France)
Language : French
Default : No
Forced : No

Text #3
ID : 5
Format : ASS
Codec ID : S_TEXT/ASS
Codec ID/Info : Advanced Sub Station Alpha
Duration : 21 min 27 s
Bit rate : 155 b/s
Count of elements : 375
Compression mode : Lossless
Stream size : 24.4 KiB (0%)
Title : Deutsch
Language : German
Default : No
Forced : No

Text #4
ID : 6
Format : ASS
Codec ID : S_TEXT/ASS
Codec ID/Info : Advanced Sub Station Alpha
Duration : 21 min 27 s
Bit rate : 168 b/s
Count of elements : 408
Compression mode : Lossless
Stream size : 26.4 KiB (0%)
Title : Italiano
Language : Italian
Default : No
Forced : No

Text #5
ID : 7
Format : ASS
Codec ID : S_TEXT/ASS
Codec ID/Info : Advanced Sub Station Alpha
Duration : 21 min 27 s
Bit rate : 137 b/s
Count of elements : 369
Compression mode : Lossless
Stream size : 21.7 KiB (0%)
Title : Espanol(Espana)
Language : Spanish
Default : No
Forced : No

Text #6
ID : 8
Format : ASS
Codec ID : S_TEXT/ASS
Codec ID/Info : Advanced Sub Station Alpha
Duration : 21 min 27 s
Bit rate : 151 b/s
Count of elements : 374
Compression mode : Lossless
Stream size : 23.9 KiB (0%)
Title : Espanol
Language : Spanish
Default : No
Forced : No

Text #7
ID : 9
Format : ASS
Codec ID : S_TEXT/ASS
Codec ID/Info : Advanced Sub Station Alpha
Duration : 21 min 27 s
Bit rate : 187 b/s
Count of elements : 399
Compression mode : Lossless
Stream size : 29.4 KiB (0%)
Title : Russian
Language : Russian
Default : No
Forced : No


Screenshots

Yesterday o Utatte (2020) (1-11)

Yesterday o Utatte (2020) (1-11)

Yesterday o Utatte (2020) (1-11)


My publications | Rss Channel