Tags
Language
Tags

Kidou Tenshi Angelic Layer (2001)

Posted By: Lebedev30
Kidou Tenshi Angelic Layer (2001)

Kidou Tenshi Angelic Layer (2001)
BDRip | MKV | 1420x1060 | H264@~5000 Kbps | 26x ~ 24mn | 26x ~1.1 Gb
Japanese PCM@1536 Kbps | 2 channels | Subtitles: None
Genre: action, comedy, manga, proxy battles, school life, shounen


Description:
Suzuhara Misaki is a sixth grader who has just moved to Tokyo to live with her aunt. She stumbles across a merchandising phenomenon known as Angelic Layer in which a person can purchase a doll and custom design it. Once their doll is finished, they can link to it through new technology and have it move however they want, as long as its within the confines of a field known as a layer. In these fields there are battles to see who is the best at Angelic Layer that occur at tourist traps or at special tournaments; Misaki meets a strange man known only as Icchan who gets her involved in the games. The man for some reason believes that she has high potential to become one of the greatest players of all time…






01. How Do You Do? My Very Own Angel
02. Let`s Try Our Best, Hikaru! The First Fight
03. Who Are You? Misaki`s Heart-Pounding Lesson
04. The Day the Angel Descended
05. I Don`t Want to Lose! Please Believe in Hikaru
06. The Light-Speed Suzuka! Hatoko`s Declaration of Rivalry
07. Fight to the Limit… Misaki`s Last Chance
08. Misaki vs Misaki? The Dangerous Classmate
09. Sing Misaki! The Deus is an Idol
10. The Mean Sisters! And the Targeted Hikaru
11. The Match! Hikaru and Mao`s Real Fight
12. Misaki and Kotaru - The Two`s Exciting Date
13. The Pure White Blanche - Kaede`s Smile
14. Never Give Up! And Then an Angel was Born
15. Shirahime vs Suzuka! The Ice Machine`s Secret
16. The Final Match! Hikaru`s Last Attack
17. I Choose You! Misaki`s Chosen Person
18. Lots of Formidable Opponents! The Much Anticipated National Tournament
19. System Down? A Battle Onboard a Boat Amidst a Storm
20. The Enemy is Icchan? The Stuttering Second Match
21. The Summer Sea! Someone is in Love with Someone
22. Suddenly Alone Together - The Secret Double Date
23. Break into the Magical Wall! Misaki vs Ohjiro
24. Reach Out to Misaki! This Feeling is Over the Rainbow
25. Fateful Reunion - An Angel Soaked with Tears
26. Angels Wings! Pull Me and Hikaru Together


General
Format : Matroska
Format version : Version 4 / Version 2
File size : 1.11 GiB
Duration : 24 min 12 s
Overall bit rate : 6 541 kb/s
Encoded date : UTC 2021-04-07 11:01:12
Writing application : mkvmerge v32.0.0 ('Astral Progressions') 64-bit
Writing library : libebml v1.3.7 + libmatroska v1.5.0

Video
ID : 1
Format : AVC
Format/Info : Advanced Video Codec
Format profile : High@L5
Format settings : CABAC / 16 Ref Frames
Format settings, CABAC : Yes
Format settings, RefFrames : 16 frames
Codec ID : V_MPEG4/ISO/AVC
Duration : 24 min 12 s
Bit rate : 5 000 kb/s
Width : 1 420 pixels
Height : 1 060 pixels
Display aspect ratio : 4:3
Frame rate mode : Constant
Frame rate : 23.976 (24000/1001) FPS
Color space : YUV
Chroma subsampling : 4:2:0
Bit depth : 8 bits
Scan type : Progressive
Bits/(Pixel*Frame) : 0.139
Stream size : 866 MiB (76%)
Writing library : x264 core 157 r2969 d4099dd
Encoding settings : cabac=1 / ref=16 / deblock=1:0:0 / analyse=0x3:0x133 / me=tesa / subme=11 / psy=1 / psy_rd=1.00:0.00 / mixed_ref=1 / me_range=24 / chroma_me=1 / trellis=2 / 8x8dct=1 / cqm=0 / deadzone=21,11 / fast_pskip=0 / chroma_qp_offset=-2 / threads=12 / lookahead_threads=3 / sliced_threads=0 / nr=0 / decimate=1 / interlaced=0 / bluray_compat=0 / constrained_intra=0 / bframes=16 / b_pyramid=2 / b_adapt=2 / b_bias=0 / direct=3 / weightb=1 / open_gop=0 / weightp=2 / keyint=240 / keyint_min=23 / scenecut=40 / intra_refresh=0 / rc_lookahead=60 / rc=2pass / mbtree=1 / bitrate=5000 / ratetol=1.0 / qcomp=0.60 / qpmin=0 / qpmax=69 / qpstep=4 / cplxblur=20.0 / qblur=0.5 / ip_ratio=1.40 / aq=1:1.00
Default : Yes
Forced : No

Audio
ID : 2
Format : PCM
Format settings : Little / Signed
Codec ID : A_PCM/INT/LIT
Duration : 24 min 12 s
Bit rate mode : Constant
Bit rate : 1 536 kb/s
Channel(s) : 2 channels
Sampling rate : 48.0 kHz
Frame rate : 32.000 FPS (1500 SPF)
Bit depth : 16 bits
Stream size : 266 MiB (23%)
Default : Yes
Forced : No


Screenshots

Kidou Tenshi Angelic Layer 			  		  		  	 			   			  	  		 	 	  	 			   		   	  		  		  		   	  	 			   		   	  		 	    		 		 			 (2001)

Kidou Tenshi Angelic Layer (2001)

Kidou Tenshi Angelic Layer (2001)


My publications | Rss Channel