Featured TV Shows


12 Monkeys S04E11

Posted By: Tavaz
1080p (FullHD) / WEB-DL IMDb
12 Monkeys S04E11

12 Monkeys S04E11
WEB-DL | MKV | 1920x1080 | English | H264 @ 6948 kbps | E-AC-3 @ 640 kbps | 48 min 21 s | 2.56 GiB
Subtitles: English
Genre: Drama, Science Fiction

The provocative story of Cole, a time traveler from a decimated future in a high-stakes race against the clock. Utilizing a dangerous and untested method of time travel, he journeys from 2043 to the present day on a mission to locate and eradicate the source of a deadly plague that will all but annihilate the human race.

12.Monkeys.S04E11.The.Beginning.Pt.2.1080p.AMZN.WEB-DL.DDP5.1.H.264-NTG.mkv (2.6 GB)



General
Unique ID : 85820253808365128309850077573187747109 (0x40906131B063C5E1B5D0FAB8EE15BD25)
Complete name : ./12.Monkeys.S04E11.The.Beginning.Pt.2.1080p.AMZN.WEB-DL.DDP5.1.H.264-NTG.mkv
Format : Matroska
Format version : Version 4 / Version 2
File size : 2.56 GiB
Duration : 48 min 21 s
Overall bit rate : 7 591 kb/s
Encoded date : UTC 2018-07-07 07:07:31
Writing application : mkvmerge v21.0.0 ('Tardigrades Will Inherit The Earth') 64-bit
Writing library : libebml v1.3.5 + libmatroska v1.4.8

Video
ID : 1
Format : AVC
Format/Info : Advanced Video Codec
Format profile : High@L4
Format settings : CABAC / 4 Ref Frames
Format settings, CABAC : Yes
Format settings, RefFrames : 4 frames
Codec ID : V_MPEG4/ISO/AVC
Duration : 48 min 21 s
Bit rate : 6 949 kb/s
Width : 1 920 pixels
Height : 1 080 pixels
Display aspect ratio : 16:9
Frame rate mode : Constant
Frame rate : 23.976 (24000/1001) FPS
Color space : YUV
Chroma subsampling : 4:2:0
Bit depth : 8 bits
Scan type : Progressive
Bits/(Pixel*Frame) : 0.140
Stream size : 2.35 GiB (92%)
Default : Yes
Forced : No
Color range : Limited
Color primaries : BT.709
Transfer characteristics : BT.709
Matrix coefficients : BT.709

Audio
ID : 2
Format : E-AC-3
Format/Info : Enhanced Audio Coding 3
Format settings, Endianness : Big
Codec ID : A_EAC3
Duration : 48 min 21 s
Bit rate mode : Constant
Bit rate : 640 kb/s
Channel(s) : 6 channels
Channel positions : Front: L C R, Side: L R, LFE
Sampling rate : 48.0 kHz
Frame rate : 187.500 FPS (256 SPF)
Compression mode : Lossy
Stream size : 221 MiB (8%)
Language : English
Service kind : Complete Main
Default : Yes
Forced : No

Text
ID : 3
Format : UTF-8
Codec ID : S_TEXT/UTF8
Codec ID/Info : UTF-8 Plain Text
Duration : 47 min 55 s
Bit rate : 42 b/s
Count of elements : 747
Stream size : 14.8 KiB (0%)
Title : SDH
Language : English
Default : No
Forced : No





12 Monkeys S04E11


12 Monkeys S04E11


12 Monkeys S04E11


12 Monkeys S04E11


12 Monkeys S04E11

All episodes