Featured TV Shows


12 Monkeys S04E11

Posted By: Tavaz
720p (HD) / WEBRip IMDb
12 Monkeys S04E11

12 Monkeys S04E11
WEBRip | MKV | 1280x720 | English | H264 @ 2560 kbps | AAC @ 96 kbps | 48 min 28 s | 924 MiB
Genre: Drama, Science Fiction

The provocative story of Cole, a time traveler from a decimated future in a high-stakes race against the clock. Utilizing a dangerous and untested method of time travel, he journeys from 2043 to the present day on a mission to locate and eradicate the source of a deadly plague that will all but annihilate the human race.

1cb86964f74f48ab8f219642c9135362.mkv (924.3 MB)



General
Unique ID : 149767743536061468058204808559847359618 (0x70AC37DBD1FC13819CF7E10696D14482)
Complete name : ./1cb86964f74f48ab8f219642c9135362.mkv
Format : Matroska
Format version : Version 4 / Version 2
File size : 924 MiB
Duration : 48 min 28 s
Overall bit rate : 2 665 kb/s
Encoded date : UTC 2018-07-07 10:59:15
Writing application : mkvmerge v23.0.0 ('The Bride Said No') 64-bit
Writing library : libebml v1.3.6 + libmatroska v1.4.9

Video
ID : 1
Format : AVC
Format/Info : Advanced Video Codec
Format profile : Main@L3.1
Format settings : CABAC / 1 Ref Frames
Format settings, CABAC : Yes
Format settings, RefFrames : 1 frame
Format settings, GOP : M=1, N=48
Codec ID : V_MPEG4/ISO/AVC
Duration : 48 min 28 s
Bit rate : 2 560 kb/s
Width : 1 280 pixels
Height : 720 pixels
Display aspect ratio : 16:9
Frame rate mode : Constant
Frame rate : 23.976 (24000/1001) FPS
Color space : YUV
Chroma subsampling : 4:2:0
Bit depth : 8 bits
Scan type : Progressive
Bits/(Pixel*Frame) : 0.116
Stream size : 890 MiB (96%)
Writing library : x264 core 152
Encoding settings : cabac=1 / ref=1 / deblock=1:0:0 / analyse=0x1:0x111 / me=hex / subme=6 / psy=1 / psy_rd=1.00:0.00 / mixed_ref=0 / me_range=16 / chroma_me=0 / trellis=1 / 8x8dct=0 / cqm=0 / deadzone=21,11 / fast_pskip=1 / chroma_qp_offset=-2 / threads=8 / lookahead_threads=1 / sliced_threads=0 / nr=0 / decimate=1 / interlaced=0 / bluray_compat=0 / constrained_intra=0 / bframes=0 / weightp=2 / keyint=48 / keyint_min=25 / scenecut=0 / intra_refresh=0 / rc=abr / mbtree=0 / bitrate=2560 / ratetol=1.0 / qcomp=0.60 / qpmin=10 / qpmax=51 / qpstep=4 / ip_ratio=1.40 / aq=1:1.00
Default : Yes
Forced : No

Audio
ID : 2
Format : AAC
Format/Info : Advanced Audio Codec
Format profile : LC
Codec ID : A_AAC-2
Duration : 48 min 28 s
Bit rate : 96.0 kb/s
Channel(s) : 2 channels
Channel positions : Front: L R
Sampling rate : 44.1 kHz
Frame rate : 43.066 FPS (1024 SPF)
Compression mode : Lossy
Stream size : 33.3 MiB (4%)
Default : Yes
Forced : No





12 Monkeys S04E11


12 Monkeys S04E11


12 Monkeys S04E11


12 Monkeys S04E11


12 Monkeys S04E11

All episodes