Animals. S01E02

Posted By: Tavaz
1080p (FullHD) / WEB-DL IMDb
Animals. S01E02

Animals. S01E02
WEB-DL | MKV | 1920x1080 | English | H264 @ 7500 kbps | AC-3 @ 384 kbps | 45 min 52 s | 2.50 GiB
Subtitles: German, Italian, Spanish, French, English
Genre: Animation, Comedy


An animated comedy focusing on the downtrodden creatures native to Earth’s least-habitable environment: New York City. Whether it’s lovelorn rats, gender-questioning pigeons or aging bedbugs in the midst of a midlife crisis, the awkward small talk, moral ambiguity and existential woes of non-human urbanites prove startlingly similar to our own.

4740c3c285244e288cac9a04b1df3804.mkv (2.5 GB)



General
Unique ID : 172401859747818365476702104411907768233 (0x81B363F247798F948058A4DBF50F3FA9)
Complete name : ./4740c3c285244e288cac9a04b1df3804.mkv
Format : Matroska
Format version : Version 4 / Version 2
File size : 2.50 GiB
Duration : 45 min 52 s
Overall bit rate mode : Variable
Overall bit rate : 7 792 kb/s
Encoded date : UTC 2018-07-22 03:11:18 / UTC 2018-04-07 00:22:18
Writing application : mkvmerge v11.0.0 ('Alive') 64bit
Writing library : libebml v1.3.4 + libmatroska v1.4.5 / Lavf58.0.0

Video
ID : 1
Format : AVC
Format/Info : Advanced Video Codec
Format profile : Main@L4
Format settings : CABAC / 3 Ref Frames
Format settings, CABAC : Yes
Format settings, RefFrames : 3 frames
Codec ID : V_MPEG4/ISO/AVC
Duration : 45 min 52 s
Bit rate mode : Variable
Bit rate : 7 500 kb/s
Maximum bit rate : 11.2 Mb/s
Width : 1 920 pixels
Height : 1 080 pixels
Display aspect ratio : 16:9
Frame rate mode : Constant
Frame rate : 25.000 FPS
Color space : YUV
Chroma subsampling : 4:2:0
Bit depth : 8 bits
Scan type : Progressive
Bits/(Pixel*Frame) : 0.145
Stream size : 2.32 GiB (93%)
Writing library : x264 core 148
Encoding settings : cabac=1 / ref=3 / deblock=1:0:0 / analyse=0x1:0x111 / me=umh / subme=10 / psy=1 / psy_rd=1.00:0.00 / mixed_ref=1 / me_range=24 / chroma_me=1 / trellis=2 / 8x8dct=0 / cqm=0 / deadzone=21,11 / fast_pskip=1 / chroma_qp_offset=-2 / threads=8 / lookahead_threads=1 / sliced_threads=0 / nr=0 / decimate=1 / interlaced=0 / bluray_compat=0 / stitchable=1 / constrained_intra=0 / bframes=2 / b_pyramid=0 / b_adapt=2 / b_bias=0 / direct=3 / weightb=1 / open_gop=0 / weightp=2 / keyint=50 / keyint_min=26 / scenecut=0 / intra_refresh=0 / rc_lookahead=50 / rc=2pass / mbtree=1 / bitrate=7500 / ratetol=1.0 / qcomp=0.50 / qpmin=6 / qpmax=51 / qpstep=4 / cplxblur=20.0 / qblur=0.5 / vbv_maxrate=11250 / vbv_bufsize=15000 / nal_hrd=vbr / filler=0 / ip_ratio=1.40 / aq=1:1.00
Default : Yes
Forced : No
Statistics Tags Issue : mkvmerge v11.0.0 ('Alive') 64bit 2018-07-22 03:11:18 / mkvmerge v11.0.0 ('Alive') 64bit 2018-07-22 03:11:18 / UTC 2018-04-07 00:22:18
FromStats_BitRate : 7405786
FromStats_Duration : 00:45:52.320000000
FromStats_FrameCount : 68808
FromStats_StreamSize : 2547886633

Audio
ID : 2
Format : AC-3
Format/Info : Audio Coding 3
Format settings, Endianness : Big
Codec ID : A_AC3
Duration : 45 min 52 s
Bit rate mode : Constant
Bit rate : 384 kb/s
Channel(s) : 6 channels
Channel positions : Front: L C R, Side: L R, LFE
Sampling rate : 48.0 kHz
Frame rate : 31.250 FPS (1536 SPF)
Bit depth : 16 bits
Compression mode : Lossy
Stream size : 126 MiB (5%)
Service kind : Complete Main
Default : Yes
Forced : No
Encoded date : UTC 2018-04-07 00:22:18
Statistics Tags Issue : mkvmerge v11.0.0 ('Alive') 64bit 2018-07-22 03:11:18 / mkvmerge v11.0.0 ('Alive') 64bit 2018-07-22 03:11:18 / UTC 2018-04-07 00:22:18
FromStats_BitRate : 384000
FromStats_Duration : 00:45:52.544000000
FromStats_FrameCount : 86017
FromStats_StreamSize : 132122112

Text #1
ID : 3
Format : UTF-8
Codec ID : S_TEXT/UTF8
Codec ID/Info : UTF-8 Plain Text
Title : English
Language : English
Default : No
Forced : No
Statistics Tags Issue : mkvmerge v11.0.0 ('Alive') 64bit 2018-07-22 03:11:18 / mkvmerge v11.0.0 ('Alive') 64bit 2018-07-22 03:11:18 / UTC 2018-04-07 00:22:18
FromStats_BitRate : 104
FromStats_Duration : 00:44:28.880000000
FromStats_FrameCount : 696
FromStats_StreamSize : 34821

Text #2
ID : 4
Format : UTF-8
Codec ID : S_TEXT/UTF8
Codec ID/Info : UTF-8 Plain Text
Title : Forced
Language : English
Default : Yes
Forced : Yes
Statistics Tags Issue : mkvmerge v11.0.0 ('Alive') 64bit 2018-07-22 03:11:18 / mkvmerge v11.0.0 ('Alive') 64bit 2018-07-22 03:11:18 / UTC 2018-04-07 00:22:18
FromStats_BitRate : 5
FromStats_Duration : 00:27:53.400000000
FromStats_FrameCount : 23
FromStats_StreamSize : 1205

Text #3
ID : 5
Format : UTF-8
Codec ID : S_TEXT/UTF8
Codec ID/Info : UTF-8 Plain Text
Title : Spanish
Language : Spanish
Default : No
Forced : No
Statistics Tags Issue : mkvmerge v11.0.0 ('Alive') 64bit 2018-07-22 03:11:18 / mkvmerge v11.0.0 ('Alive') 64bit 2018-07-22 03:11:18 / UTC 2018-04-07 00:22:18
FromStats_BitRate : 106
FromStats_Duration : 00:45:18.760000000
FromStats_FrameCount : 752
FromStats_StreamSize : 36187

Text #4
ID : 6
Format : UTF-8
Codec ID : S_TEXT/UTF8
Codec ID/Info : UTF-8 Plain Text
Title : French
Language : French
Default : No
Forced : No
Statistics Tags Issue : mkvmerge v11.0.0 ('Alive') 64bit 2018-07-22 03:11:18 / mkvmerge v11.0.0 ('Alive') 64bit 2018-07-22 03:11:18 / UTC 2018-04-07 00:22:18
FromStats_BitRate : 99
FromStats_Duration : 00:45:18.880000000
FromStats_FrameCount : 712
FromStats_StreamSize : 33909

Text #5
ID : 7
Format : UTF-8
Codec ID : S_TEXT/UTF8
Codec ID/Info : UTF-8 Plain Text
Title : German
Language : German
Default : No
Forced : No
Statistics Tags Issue : mkvmerge v11.0.0 ('Alive') 64bit 2018-07-22 03:11:18 / mkvmerge v11.0.0 ('Alive') 64bit 2018-07-22 03:11:18 / UTC 2018-04-07 00:22:18
FromStats_BitRate : 105
FromStats_Duration : 00:45:19.200000000
FromStats_FrameCount : 736
FromStats_StreamSize : 35868

Text #6
ID : 8
Format : UTF-8
Codec ID : S_TEXT/UTF8
Codec ID/Info : UTF-8 Plain Text
Title : Italian
Language : Italian
Default : No
Forced : No
Statistics Tags Issue : mkvmerge v11.0.0 ('Alive') 64bit 2018-07-22 03:11:18 / mkvmerge v11.0.0 ('Alive') 64bit 2018-07-22 03:11:18 / UTC 2018-04-07 00:22:18
FromStats_BitRate : 104
FromStats_Duration : 00:45:18.800000000
FromStats_FrameCount : 722
FromStats_StreamSize : 35412





Animals. S01E02


Animals. S01E02


Animals. S01E02


Animals. S01E02


Animals. S01E02

All episodes