Animals. S01E07

Posted By: Tavaz
1080p (FullHD) / WEB-DL IMDb
Animals. S01E07

Animals. S01E07
WEB-DL | MKV | 1920x1080 | English | H264 @ 6180 kbps | AC-3 @ 384 kbps | 46 min 18 s | 2.17 GiB
Subtitles: German, Italian, Spanish, French, English
Genre: Animation, Comedy


An animated comedy focusing on the downtrodden creatures native to Earth’s least-habitable environment: New York City. Whether it’s lovelorn rats, gender-questioning pigeons or aging bedbugs in the midst of a midlife crisis, the awkward small talk, moral ambiguity and existential woes of non-human urbanites prove startlingly similar to our own.

3966f90a108841699438a57b13665820.mkv (2.2 GB)



General
Unique ID : 175627390830346943643486576478167839022 (0x84209AE83148616FA7F992C662CD312E)
Complete name : ./3966f90a108841699438a57b13665820.mkv
Format : Matroska
Format version : Version 4 / Version 2
File size : 2.17 GiB
Duration : 46 min 18 s
Overall bit rate mode : Variable
Overall bit rate : 6 698 kb/s
Encoded date : UTC 2018-07-22 09:59:46 / UTC 2018-04-20 00:46:52
Writing application : mkvmerge v11.0.0 ('Alive') 64bit
Writing library : libebml v1.3.4 + libmatroska v1.4.5 / Lavf58.0.0

Video
ID : 1
Format : AVC
Format/Info : Advanced Video Codec
Format profile : Main@L4
Format settings : CABAC / 3 Ref Frames
Format settings, CABAC : Yes
Format settings, RefFrames : 3 frames
Codec ID : V_MPEG4/ISO/AVC
Duration : 46 min 18 s
Bit rate mode : Variable
Bit rate : 6 180 kb/s
Nominal bit rate : 6 490 kb/s
Maximum bit rate : 9 735 kb/s
Width : 1 920 pixels
Height : 1 080 pixels
Display aspect ratio : 16:9
Frame rate mode : Constant
Frame rate : 25.000 FPS
Color space : YUV
Chroma subsampling : 4:2:0
Bit depth : 8 bits
Scan type : Progressive
Bits/(Pixel*Frame) : 0.119
Stream size : 2.00 GiB (92%)
Writing library : x264 core 148 r2715 7e75228
Encoding settings : cabac=1 / ref=3 / deblock=1:0:0 / analyse=0x1:0x111 / me=umh / subme=10 / psy=1 / psy_rd=1.00:0.00 / mixed_ref=1 / me_range=24 / chroma_me=1 / trellis=2 / 8x8dct=0 / cqm=0 / deadzone=21,11 / fast_pskip=1 / chroma_qp_offset=-2 / threads=8 / lookahead_threads=1 / sliced_threads=0 / nr=0 / decimate=1 / interlaced=0 / bluray_compat=0 / stitchable=1 / constrained_intra=0 / bframes=2 / b_pyramid=0 / b_adapt=2 / b_bias=0 / direct=3 / weightb=1 / open_gop=0 / weightp=2 / keyint=50 / keyint_min=26 / scenecut=0 / intra_refresh=0 / rc_lookahead=50 / rc=2pass / mbtree=1 / bitrate=6490 / ratetol=1.0 / qcomp=0.50 / qpmin=6 / qpmax=51 / qpstep=4 / cplxblur=20.0 / qblur=0.5 / vbv_maxrate=9735 / vbv_bufsize=12980 / nal_hrd=vbr / filler=0 / ip_ratio=1.40 / aq=1:1.00
Default : Yes
Forced : No
Statistics Tags Issue : mkvmerge v11.0.0 ('Alive') 64bit 2018-07-22 09:59:46 / mkvmerge v11.0.0 ('Alive') 64bit 2018-07-22 09:59:46 / UTC 2018-04-20 00:46:52
FromStats_BitRate : 6311345
FromStats_Duration : 00:46:18.320000000
FromStats_FrameCount : 69458
FromStats_StreamSize : 2191867207

Audio
ID : 2
Format : AC-3
Format/Info : Audio Coding 3
Format settings, Endianness : Big
Codec ID : A_AC3
Duration : 46 min 18 s
Bit rate mode : Constant
Bit rate : 384 kb/s
Channel(s) : 6 channels
Channel positions : Front: L C R, Side: L R, LFE
Sampling rate : 48.0 kHz
Frame rate : 31.250 FPS (1536 SPF)
Bit depth : 16 bits
Compression mode : Lossy
Stream size : 127 MiB (6%)
Service kind : Complete Main
Default : Yes
Forced : No
Encoded date : UTC 2018-04-20 00:46:52
Statistics Tags Issue : mkvmerge v11.0.0 ('Alive') 64bit 2018-07-22 09:59:46 / mkvmerge v11.0.0 ('Alive') 64bit 2018-07-22 09:59:46 / UTC 2018-04-20 00:46:52
FromStats_BitRate : 384000
FromStats_Duration : 00:46:18.656000000
FromStats_FrameCount : 86833
FromStats_StreamSize : 133375488

Text #1
ID : 3
Format : UTF-8
Codec ID : S_TEXT/UTF8
Codec ID/Info : UTF-8 Plain Text
Title : Forced
Language : English
Default : Yes
Forced : Yes
Statistics Tags Issue : mkvmerge v11.0.0 ('Alive') 64bit 2018-07-22 09:59:46 / mkvmerge v11.0.0 ('Alive') 64bit 2018-07-22 09:59:46 / UTC 2018-04-20 00:46:52
FromStats_BitRate : 11
FromStats_Duration : 00:36:34.760000000
FromStats_FrameCount : 65
FromStats_StreamSize : 3131

Text #2
ID : 4
Format : UTF-8
Codec ID : S_TEXT/UTF8
Codec ID/Info : UTF-8 Plain Text
Title : English
Language : English
Default : No
Forced : No
Statistics Tags Issue : mkvmerge v11.0.0 ('Alive') 64bit 2018-07-22 09:59:46 / mkvmerge v11.0.0 ('Alive') 64bit 2018-07-22 09:59:46 / UTC 2018-04-20 00:46:52
FromStats_BitRate : 112
FromStats_Duration : 00:44:07.680000000
FromStats_FrameCount : 761
FromStats_StreamSize : 37341

Text #3
ID : 5
Format : UTF-8
Codec ID : S_TEXT/UTF8
Codec ID/Info : UTF-8 Plain Text
Title : Spanish
Language : Spanish
Default : No
Forced : No
Statistics Tags Issue : mkvmerge v11.0.0 ('Alive') 64bit 2018-07-22 09:59:46 / mkvmerge v11.0.0 ('Alive') 64bit 2018-07-22 09:59:46 / UTC 2018-04-20 00:46:52
FromStats_BitRate : 99
FromStats_Duration : 00:45:43.200000000
FromStats_FrameCount : 722
FromStats_StreamSize : 34110

Text #4
ID : 6
Format : UTF-8
Codec ID : S_TEXT/UTF8
Codec ID/Info : UTF-8 Plain Text
Title : French
Language : French
Default : No
Forced : No
Statistics Tags Issue : mkvmerge v11.0.0 ('Alive') 64bit 2018-07-22 09:59:46 / mkvmerge v11.0.0 ('Alive') 64bit 2018-07-22 09:59:46 / UTC 2018-04-20 00:46:52
FromStats_BitRate : 113
FromStats_Duration : 00:45:43.240000000
FromStats_FrameCount : 730
FromStats_StreamSize : 38841

Text #5
ID : 7
Format : UTF-8
Codec ID : S_TEXT/UTF8
Codec ID/Info : UTF-8 Plain Text
Title : German
Language : German
Default : No
Forced : No
Statistics Tags Issue : mkvmerge v11.0.0 ('Alive') 64bit 2018-07-22 09:59:46 / mkvmerge v11.0.0 ('Alive') 64bit 2018-07-22 09:59:46 / UTC 2018-04-20 00:46:52
FromStats_BitRate : 110
FromStats_Duration : 00:45:43.160000000
FromStats_FrameCount : 742
FromStats_StreamSize : 38045

Text #6
ID : 8
Format : UTF-8
Codec ID : S_TEXT/UTF8
Codec ID/Info : UTF-8 Plain Text
Title : Italian
Language : Italian
Default : No
Forced : No
Statistics Tags Issue : mkvmerge v11.0.0 ('Alive') 64bit 2018-07-22 09:59:46 / mkvmerge v11.0.0 ('Alive') 64bit 2018-07-22 09:59:46 / UTC 2018-04-20 00:46:52
FromStats_BitRate : 107
FromStats_Duration : 00:45:43.240000000
FromStats_FrameCount : 729
FromStats_StreamSize : 36983





Animals. S01E07


Animals. S01E07


Animals. S01E07


Animals. S01E07


Animals. S01E07

All episodes