Animals. S01E12

Posted By: Tavaz
1080p (FullHD) / WEB-DL IMDb
Animals. S01E12

Animals. S01E12
WEB-DL | MKV | 1920x1080 | English | H264 @ 6459 kbps | AC-3 @ 384 kbps | 43 min 16 s | 2.11 GiB
Subtitles: German, Italian, Spanish, French, English
Genre: Animation, Comedy


An animated comedy focusing on the downtrodden creatures native to Earth’s least-habitable environment: New York City. Whether it’s lovelorn rats, gender-questioning pigeons or aging bedbugs in the midst of a midlife crisis, the awkward small talk, moral ambiguity and existential woes of non-human urbanites prove startlingly similar to our own.

5f5ba9bed30a46e5a8acc5247e85323c.mkv (2.1 GB)



General
Unique ID : 177953347021658102291716813052633333523 (0x85E09166B2A4A6EC93F62B5000FEBF13)
Complete name : ./5f5ba9bed30a46e5a8acc5247e85323c.mkv
Format : Matroska
Format version : Version 4 / Version 2
File size : 2.11 GiB
Duration : 43 min 16 s
Overall bit rate mode : Variable
Overall bit rate : 6 983 kb/s
Encoded date : UTC 2018-07-22 04:08:44 / UTC 2018-04-07 00:50:21
Writing application : mkvmerge v11.0.0 ('Alive') 64bit
Writing library : libebml v1.3.4 + libmatroska v1.4.5 / Lavf58.0.0

Video
ID : 1
Format : AVC
Format/Info : Advanced Video Codec
Format profile : Main@L4
Format settings : CABAC / 3 Ref Frames
Format settings, CABAC : Yes
Format settings, RefFrames : 3 frames
Codec ID : V_MPEG4/ISO/AVC
Duration : 43 min 16 s
Bit rate mode : Variable
Bit rate : 6 460 kb/s
Nominal bit rate : 6 810 kb/s
Maximum bit rate : 10.2 Mb/s
Width : 1 920 pixels
Height : 1 080 pixels
Display aspect ratio : 16:9
Frame rate mode : Constant
Frame rate : 25.000 FPS
Color space : YUV
Chroma subsampling : 4:2:0
Bit depth : 8 bits
Scan type : Progressive
Bits/(Pixel*Frame) : 0.125
Stream size : 1.95 GiB (93%)
Writing library : x264 core 148
Encoding settings : cabac=1 / ref=3 / deblock=1:0:0 / analyse=0x1:0x111 / me=umh / subme=10 / psy=1 / psy_rd=1.00:0.00 / mixed_ref=1 / me_range=24 / chroma_me=1 / trellis=2 / 8x8dct=0 / cqm=0 / deadzone=21,11 / fast_pskip=1 / chroma_qp_offset=-2 / threads=8 / lookahead_threads=1 / sliced_threads=0 / nr=0 / decimate=1 / interlaced=0 / bluray_compat=0 / stitchable=1 / constrained_intra=0 / bframes=2 / b_pyramid=0 / b_adapt=2 / b_bias=0 / direct=3 / weightb=1 / open_gop=0 / weightp=2 / keyint=50 / keyint_min=26 / scenecut=0 / intra_refresh=0 / rc_lookahead=50 / rc=2pass / mbtree=1 / bitrate=6810 / ratetol=1.0 / qcomp=0.50 / qpmin=6 / qpmax=51 / qpstep=4 / cplxblur=20.0 / qblur=0.5 / vbv_maxrate=10215 / vbv_bufsize=13620 / nal_hrd=vbr / filler=0 / ip_ratio=1.40 / aq=1:1.00
Default : Yes
Forced : No
Statistics Tags Issue : mkvmerge v11.0.0 ('Alive') 64bit 2018-07-22 04:08:44 / mkvmerge v11.0.0 ('Alive') 64bit 2018-07-22 04:08:44 / UTC 2018-04-07 00:50:21
FromStats_BitRate : 6596536
FromStats_Duration : 00:43:16.320000000
FromStats_FrameCount : 64908
FromStats_StreamSize : 2140840019

Audio
ID : 2
Format : AC-3
Format/Info : Audio Coding 3
Format settings, Endianness : Big
Codec ID : A_AC3
Duration : 43 min 16 s
Bit rate mode : Constant
Bit rate : 384 kb/s
Channel(s) : 6 channels
Channel positions : Front: L C R, Side: L R, LFE
Sampling rate : 48.0 kHz
Frame rate : 31.250 FPS (1536 SPF)
Bit depth : 16 bits
Compression mode : Lossy
Stream size : 119 MiB (5%)
Service kind : Complete Main
Default : Yes
Forced : No
Encoded date : UTC 2018-04-07 00:50:21
Statistics Tags Issue : mkvmerge v11.0.0 ('Alive') 64bit 2018-07-22 04:08:44 / mkvmerge v11.0.0 ('Alive') 64bit 2018-07-22 04:08:44 / UTC 2018-04-07 00:50:21
FromStats_BitRate : 384000
FromStats_Duration : 00:43:16.640000000
FromStats_FrameCount : 81145
FromStats_StreamSize : 124638720

Text #1
ID : 3
Format : UTF-8
Codec ID : S_TEXT/UTF8
Codec ID/Info : UTF-8 Plain Text
Title : Forced
Language : English
Default : Yes
Forced : Yes
Statistics Tags Issue : mkvmerge v11.0.0 ('Alive') 64bit 2018-07-22 04:08:44 / mkvmerge v11.0.0 ('Alive') 64bit 2018-07-22 04:08:44 / UTC 2018-04-07 00:50:21
FromStats_BitRate : 6
FromStats_Duration : 00:30:28.360000000
FromStats_FrameCount : 31
FromStats_StreamSize : 1533

Text #2
ID : 4
Format : UTF-8
Codec ID : S_TEXT/UTF8
Codec ID/Info : UTF-8 Plain Text
Title : English
Language : English
Default : No
Forced : No
Statistics Tags Issue : mkvmerge v11.0.0 ('Alive') 64bit 2018-07-22 04:08:44 / mkvmerge v11.0.0 ('Alive') 64bit 2018-07-22 04:08:44 / UTC 2018-04-07 00:50:21
FromStats_BitRate : 104
FromStats_Duration : 00:41:15.200000000
FromStats_FrameCount : 666
FromStats_StreamSize : 32385

Text #3
ID : 5
Format : UTF-8
Codec ID : S_TEXT/UTF8
Codec ID/Info : UTF-8 Plain Text
Title : Spanish
Language : Spanish
Default : No
Forced : No
Statistics Tags Issue : mkvmerge v11.0.0 ('Alive') 64bit 2018-07-22 04:08:44 / mkvmerge v11.0.0 ('Alive') 64bit 2018-07-22 04:08:44 / UTC 2018-04-07 00:50:21
FromStats_BitRate : 101
FromStats_Duration : 00:42:42.840000000
FromStats_FrameCount : 702
FromStats_StreamSize : 32612

Text #4
ID : 6
Format : UTF-8
Codec ID : S_TEXT/UTF8
Codec ID/Info : UTF-8 Plain Text
Title : French
Language : French
Default : No
Forced : No
Statistics Tags Issue : mkvmerge v11.0.0 ('Alive') 64bit 2018-07-22 04:08:44 / mkvmerge v11.0.0 ('Alive') 64bit 2018-07-22 04:08:44 / UTC 2018-04-07 00:50:21
FromStats_BitRate : 121
FromStats_Duration : 00:42:42.840000000
FromStats_FrameCount : 778
FromStats_StreamSize : 38954

Text #5
ID : 7
Format : UTF-8
Codec ID : S_TEXT/UTF8
Codec ID/Info : UTF-8 Plain Text
Title : German
Language : German
Default : No
Forced : No
Statistics Tags Issue : mkvmerge v11.0.0 ('Alive') 64bit 2018-07-22 04:08:44 / mkvmerge v11.0.0 ('Alive') 64bit 2018-07-22 04:08:44 / UTC 2018-04-07 00:50:21
FromStats_BitRate : 110
FromStats_Duration : 00:42:42.840000000
FromStats_FrameCount : 750
FromStats_StreamSize : 35425

Text #6
ID : 8
Format : UTF-8
Codec ID : S_TEXT/UTF8
Codec ID/Info : UTF-8 Plain Text
Title : Italian
Language : Italian
Default : No
Forced : No
Statistics Tags Issue : mkvmerge v11.0.0 ('Alive') 64bit 2018-07-22 04:08:44 / mkvmerge v11.0.0 ('Alive') 64bit 2018-07-22 04:08:44 / UTC 2018-04-07 00:50:21
FromStats_BitRate : 110
FromStats_Duration : 00:42:42.840000000
FromStats_FrameCount : 715
FromStats_StreamSize : 35460





Animals. S01E12


Animals. S01E12


Animals. S01E12


Animals. S01E12


Animals. S01E12

All episodes