Featured TV Shows


Absentia S02E08

Posted By: Tavaz
1080p (FullHD) / WEBRip IMDb
Absentia S02E08

Absentia S02E08
WEBRip | MKV | 1920x1080 | Italian / English | H264 @ 7098 kbps | E-AC-3 @ 640 kbps | 44 min 46 s | 2.62 GiB
Subtitles: English, Italian
Genre: Crime, Drama, Mystery


A missing FBI agent reappears six years after being declared dead.

Absentia.S02E08.iTALiAN.MULTi.1080p.WEB.H264-HWD.mkv (2.6 GB)



General
Unique ID : 37976227759779263227101721730305175785 (0x1C91F49684F3813FC81AC0C897D330E9)
Complete name : ./Absentia.S02E08.iTALiAN.MULTi.1080p.WEB.H264-HWD.mkv
Format : Matroska
Format version : Version 4 / Version 2
File size : 2.62 GiB
Duration : 44 min 46 s
Overall bit rate : 8 381 kb/s
Encoded date : UTC 2019-11-22 23:10:47
Writing application : mkvmerge v28.2.0 ('The Awakening') 64-bit
Writing library : libebml v1.3.6 + libmatroska v1.4.9

Video
ID : 1
Format : AVC
Format/Info : Advanced Video Codec
Format profile : High@L4
Format settings : CABAC / 4 Ref Frames
Format settings, CABAC : Yes
Format settings, RefFrames : 4 frames
Codec ID : V_MPEG4/ISO/AVC
Duration : 44 min 45 s
Bit rate mode : Constant
Bit rate : 7 099 kb/s
Nominal bit rate : 10 000 kb/s
Width : 1 920 pixels
Height : 1 080 pixels
Display aspect ratio : 16:9
Frame rate mode : Constant
Frame rate : 23.976 (24000/1001) FPS
Color space : YUV
Chroma subsampling : 4:2:0
Bit depth : 8 bits
Scan type : Progressive
Bits/(Pixel*Frame) : 0.143
Stream size : 2.22 GiB (85%)
Default : Yes
Forced : No
Color range : Limited
Color primaries : BT.709
Transfer characteristics : BT.709
Matrix coefficients : BT.709

Audio #1
ID : 2
Format : E-AC-3
Format/Info : Enhanced Audio Coding 3
Format settings, Endianness : Big
Codec ID : A_EAC3
Duration : 44 min 46 s
Bit rate mode : Constant
Bit rate : 640 kb/s
Channel(s) : 6 channels
Channel positions : Front: L C R, Side: L R, LFE
Sampling rate : 48.0 kHz
Frame rate : 187.500 FPS (256 SPF)
Compression mode : Lossy
Stream size : 205 MiB (8%)
Title : Italian - HQ
Language : Italian
Service kind : Complete Main
Default : Yes
Forced : No

Audio #2
ID : 3
Format : E-AC-3
Format/Info : Enhanced Audio Coding 3
Format settings, Endianness : Big
Codec ID : A_EAC3
Duration : 44 min 45 s
Bit rate mode : Constant
Bit rate : 640 kb/s
Channel(s) : 6 channels
Channel positions : Front: L C R, Side: L R, LFE
Sampling rate : 48.0 kHz
Frame rate : 187.500 FPS (256 SPF)
Compression mode : Lossy
Stream size : 205 MiB (8%)
Title : English - HQ
Language : English
Service kind : Complete Main
Default : No
Forced : No

Text #1
ID : 4
Format : UTF-8
Codec ID : S_TEXT/UTF8
Codec ID/Info : UTF-8 Plain Text
Duration : 34 min 2 s
Bit rate : 0 b/s
Count of elements : 7
Stream size : 245 Bytes (0%)
Title : Italian Forced
Language : Italian
Default : Yes
Forced : Yes

Text #2
ID : 5
Format : UTF-8
Codec ID : S_TEXT/UTF8
Codec ID/Info : UTF-8 Plain Text
Duration : 44 min 16 s
Bit rate : 52 b/s
Count of elements : 519
Stream size : 17.1 KiB (0%)
Title : Italian
Language : Italian
Default : No
Forced : No

Text #3
ID : 6
Format : UTF-8
Codec ID : S_TEXT/UTF8
Codec ID/Info : UTF-8 Plain Text
Duration : 43 min 10 s
Bit rate : 55 b/s
Count of elements : 610
Stream size : 17.5 KiB (0%)
Title : English SDH
Language : English
Default : No
Forced : No

Menu
00:00:00.000 : en:1. Amazon Original
00:00:05.000 : en:2. To Tommy, never forgotten
00:03:54.000 : en:3. Title Sequence
00:04:04.000 : en:4. Small suspicions
00:07:10.000 : en:5. Working under the radar
00:09:56.000 : en:6. Nick acts on his suspicions
00:11:04.000 : en:7. How is Catalyst involved
00:11:43.000 : en:8. An unknown injection
00:13:07.000 : en:9. Shirking responsibilities
00:14:40.000 : en:10. Security footage at Catalyst
00:15:53.000 : en:11. Bonding in the woods
00:17:46.000 : en:12. Emily misses Tommy
00:20:10.000 : en:13. The Deputy Director is in the office
00:20:41.000 : en:14. Nick and Alice get into an argument
00:22:41.000 : en:15. Everyone has different coping mechanisms
00:29:19.000 : en:16. Tough choices lead to tough conversations
00:36:22.000 : en:17. Project Quil
00:43:23.000 : en:18. End Credits





Absentia S02E08


Absentia S02E08


Absentia S02E08


Absentia S02E08


Absentia S02E08

All episodes