Featured TV Shows


Alone Together S01E01

Posted By: Tavaz
720p (HD) / WEBRip IMDb
Alone Together S01E01

Alone Together S01E01
WEBRip | MKV | 1280x720 | English | H264 @ 2816 kbps | E-AC-3 @ 640 kbps | 23 min 0 s | 569 MiB
Subtitles: English
Genre: Comedy

Esther and Benji are platonic best friends who want nothing more than to be accepted by the vain and status-obsessed culture of Los Angeles. Despite their sometimes contentious relationship, when push comes to shove, they’ve got each other’s back … And they have nobody else to hang out with.

b2146759b604476d9f1d429cf7e73002.mkv (569.4 MB)



General
Unique ID : 154150348747606672445353169805139307089 (0x73F846FA7364213A629831EA7F8CEA51)
Complete name : ./b2146759b604476d9f1d429cf7e73002.mkv
Format : Matroska
Format version : Version 4 / Version 2
File size : 569 MiB
Duration : 23 min 0 s
Overall bit rate mode : Variable
Overall bit rate : 3 459 kb/s
Encoded date : UTC 2018-01-14 18:34:06
Writing application : mkvmerge v19.0.0 ('Brave Captain') 64-bit
Writing library : libebml v1.3.5 + libmatroska v1.4.8

Video
ID : 1
Format : AVC
Format/Info : Advanced Video Codec
Format profile : High@L3.1
Format settings : CABAC / 5 Ref Frames
Format settings, CABAC : Yes
Format settings, RefFrames : 5 frames
Codec ID : V_MPEG4/ISO/AVC
Duration : 23 min 0 s
Bit rate mode : Variable
Bit rate : 2 817 kb/s
Maximum bit rate : 4 500 kb/s
Width : 1 280 pixels
Height : 720 pixels
Display aspect ratio : 16:9
Frame rate mode : Constant
Frame rate : 23.976 (24000/1001) FPS
Color space : YUV
Chroma subsampling : 4:2:0
Bit depth : 8 bits
Scan type : Progressive
Bits/(Pixel*Frame) : 0.127
Stream size : 464 MiB (81%)
Default : Yes
Forced : No
Color range : Limited
Color primaries : BT.709
Transfer characteristics : BT.709
Matrix coefficients : BT.709

Audio
ID : 2
Format : E-AC-3
Format/Info : Enhanced Audio Coding 3
Format settings, Endianness : Big
Codec ID : A_EAC3
Duration : 23 min 0 s
Bit rate mode : Constant
Bit rate : 640 kb/s
Channel(s) : 6 channels
Channel positions : Front: L C R, Side: L R, LFE
Sampling rate : 48.0 kHz
Frame rate : 187.500 FPS (256 SPF)
Compression mode : Lossy
Stream size : 105 MiB (19%)
Language : English
Service kind : Complete Main
Default : Yes
Forced : No

Text #1
ID : 3
Format : UTF-8
Codec ID : S_TEXT/UTF8
Codec ID/Info : UTF-8 Plain Text
Duration : 22 min 58 s
Bit rate : 127 b/s
Count of elements : 656
Stream size : 21.4 KiB (0%)
Language : English
Default : No
Forced : No

Text #2
ID : 4
Format : UTF-8
Codec ID : S_TEXT/UTF8
Codec ID/Info : UTF-8 Plain Text
Duration : 22 min 59 s
Bit rate : 130 b/s
Count of elements : 672
Stream size : 22.0 KiB (0%)
Title : SDH
Language : English
Default : No
Forced : No





Alone Together S01E01


Alone Together S01E01


Alone Together S01E01


Alone Together S01E01


Alone Together S01E01

All episodes