Featured TV Shows


Alone Together S01E01

Posted By: Tavaz
1080p (FullHD) / WEBRip IMDb
Alone Together S01E01

Alone Together S01E01
WEBRip | MKV | 1920x1080 | English | H264 @ 7882 kbps | E-AC-3 @ 640 kbps | 23 min 0 s | 1.37 GiB
Subtitles: English
Genre: Comedy

Esther and Benji are platonic best friends who want nothing more than to be accepted by the vain and status-obsessed culture of Los Angeles. Despite their sometimes contentious relationship, when push comes to shove, they’ve got each other’s back … And they have nobody else to hang out with.

2e4b9d8802d842ad98842af323dc73ad.mkv (1.4 GB)



General
Unique ID : 329038650979855907964061344326739290888 (0xF78A8A0108E316F79C64734798B7EB08)
Complete name : ./2e4b9d8802d842ad98842af323dc73ad.mkv
Format : Matroska
Format version : Version 4 / Version 2
File size : 1.37 GiB
Duration : 23 min 0 s
Overall bit rate mode : Variable
Overall bit rate : 8 525 kb/s
Encoded date : UTC 2018-01-14 18:32:46
Writing application : mkvmerge v19.0.0 ('Brave Captain') 64-bit
Writing library : libebml v1.3.5 + libmatroska v1.4.8

Video
ID : 1
Format : AVC
Format/Info : Advanced Video Codec
Format profile : High@L4
Format settings : CABAC / 4 Ref Frames
Format settings, CABAC : Yes
Format settings, RefFrames : 4 frames
Codec ID : V_MPEG4/ISO/AVC
Duration : 23 min 0 s
Bit rate mode : Variable
Bit rate : 7 883 kb/s
Maximum bit rate : 15.0 Mb/s
Width : 1 920 pixels
Height : 1 080 pixels
Display aspect ratio : 16:9
Frame rate mode : Constant
Frame rate : 23.976 (24000/1001) FPS
Color space : YUV
Chroma subsampling : 4:2:0
Bit depth : 8 bits
Scan type : Progressive
Bits/(Pixel*Frame) : 0.159
Stream size : 1.27 GiB (92%)
Default : Yes
Forced : No
Color range : Limited
Color primaries : BT.709
Transfer characteristics : BT.709
Matrix coefficients : BT.709

Audio
ID : 2
Format : E-AC-3
Format/Info : Enhanced Audio Coding 3
Format settings, Endianness : Big
Codec ID : A_EAC3
Duration : 23 min 0 s
Bit rate mode : Constant
Bit rate : 640 kb/s
Channel(s) : 6 channels
Channel positions : Front: L C R, Side: L R, LFE
Sampling rate : 48.0 kHz
Frame rate : 187.500 FPS (256 SPF)
Compression mode : Lossy
Stream size : 105 MiB (8%)
Language : English
Service kind : Complete Main
Default : Yes
Forced : No

Text #1
ID : 3
Format : UTF-8
Codec ID : S_TEXT/UTF8
Codec ID/Info : UTF-8 Plain Text
Duration : 22 min 58 s
Bit rate : 127 b/s
Count of elements : 656
Stream size : 21.4 KiB (0%)
Language : English
Default : No
Forced : No

Text #2
ID : 4
Format : UTF-8
Codec ID : S_TEXT/UTF8
Codec ID/Info : UTF-8 Plain Text
Duration : 22 min 59 s
Bit rate : 130 b/s
Count of elements : 672
Stream size : 22.0 KiB (0%)
Title : SDH
Language : English
Default : No
Forced : No





Alone Together S01E01


Alone Together S01E01


Alone Together S01E01


Alone Together S01E01


Alone Together S01E01

All episodes